&title=ミッドナイト☆WAR
&artist=いちか
&first=0
&des=Kondou as "Deadline Fighters"
&lv_5=14
&inote_5=(156){1},
{8}
3>5[8:4]/4h[8:6],,,,,,,,
6<4[8:4]/5h[8:6],,,,,,,,
1/2-4[8:1],,5-7[8:1]/2,,8-2[8:1]/5,,4w8[8:1]/8,,
4,,6qq3[8:3]/2qq7[8:3],,62,,,,
{16}1b,4,2,4,3,,6,5,7,5,8,,2-5[8:1],1,3,,
6h[16:3],,,,8^3[8:1],7,8,,4-1[8:1],,5,,6h[8:1]/4,,,,
3b,5,2,5,1,,7,4,6,4,5,,2,1,3,1,2-4[8:1],,5,5,2,,6,,7-3[8:1],,81,,73,,,,
5b,4,6,4,7,,2,1,3,1,4,,6-1[8:1],8,6,,
2h[16:3],,,,4^7[8:1],3,4,3,4-1[8:1],,2,,8h[8:1]/4,,,,
6b,2,5,2,4,,3,7,4,7,5,,
1,8,2,1,3b,3,4,2,6b,6,5,7,1b,1,8,8,7,7,6,6,
{8}75,75,4,,4,,4,,
12,12,8,,8,,8,,
54,54,3,,3,,3,,
{24}6,5,6,5,6,5,7,5,7,5,7,5,{16}8,,2,2,,4,43,,
{8}6b/5b,7b/3b,1,,1,,1,,
3b/4b,1b/5b,7,,7,,7,,
6b/5b,2b/4b,3,,3,,3,81,
6h[8:2]/3h[8:2],,,,{24}4-1[8:1],5,4,{16}5,3,{16}3b,,,,
{8}62,3,5/4^1[8:1],6,7^4[8:1],7,3-7[8:1],3,
,{16}6,5,{8}6,1,8/2^7[8:1],{16}3,4,{8}2,6,
5b/4b,7-5[8:1],5,73,2-4[8:1],4,26,8,
61,84,52,47,{16}2,4,3,6,5,7,1,,
{16}8b/2b,,3,3,4,,45,,7-4[8:1]/5,,4,,2,,2,,
53,,6,6,5,,54,,2-5[8:1]/4,,5,,7,,7,,
{8}81,3,2/4q6[8:2],6,8h[16:3],,8,78,
{16}2b,1,3,8,5,6,4,7,1,8,1,8,1,8,72,,
{16}3b-5[8:1],,,5,,,6,,3-7[8:1]/7,,,,,,,,
6-4[8:1],,,4,,,3,,6-2[8:1]/2,,,,,,,,
3-5[8:1],,,5,,,6,,3-7[8:1]/7,,,,,,,,
6-4[8:1],,,4,,,3,3,7-3[8:1],,8,,7,,,,
1b/2b^5[8:1],,,8,,,7,,1q5[8:1]/6h[8:2],,,,,,,,
8/7^4[8:1],,,1,,,2,,8p4[8:1]/3h[8:2],,,,,,,,
1/2^5[8:1],,,8,,,7,,1q5[8:1]/6h[8:2],,,,,,,,
7b/8b,,,8,7,2,1b,,{24}8,1,8,{16}1-5[8:1],7,2h[8:1],,1,,
{16}4b,,3,3,7,,81,,6-2[8:1],,5,5,6,,3,,
81,,6,4,7,5,8,8,2,1,3,7,5,6,{24}4,3,2,{16}
1b/8b,,,2/1,,,2/3,,1b/8b,,,8/7,,,7/6,,
1b/3b,,,2b/4b,,,3b/5b,,7b/8b,,,,3w7[8:1],,,,
3b,,,,5p1[8:1]*>1[8:1],,,,5,,,,7/8,,6^3[8:1],,
,,5-8[8:1],,2,,2,,4^1[8:1]*^7[8:1],,,,4b,,,,
2-6[8:1],1,3,8,2,,7,7,8^5[8:1],,2-7[8:1],,8,,2,,
4,8,5,1,6,2,7,3,{24}8,4,8,4,8,4,{16}7b,5,6,5,
8b-4[8:1],,,,5w1[8:1],,,,5,,,,37,,2^5[8:1],,
,,4-1[8:1],,7,,7,,5-8[8:1]*-2[8:1],,,,5b,,,,
3^6[8:1],4,2,5,3,,7,7,8-5[8:1],,1,1,8,,2,,
{24}2,3,4,7,6,5,3,4,3,4,3,4,2,5,2,5,2,5,{16}1b^6[8:1]*^4[8:1],,,,
1b,,,5,2>6[8:1],,1,1,2,,7,,87,,1-5[8:1],,
2^7[8:1],,1,,2,,6,6,5,7,3,4,2b,,81,,
7-4[8:1],5,8,4,7,,2,2,1-5[8:1],3,7,,81,,6,6,
{24}2,3,4,5/7,,,{16}1b/2b,,{24}3,4,3,4,,,7,5,7,{16}5,6,4,5,
2b-6[8:1],,,8,28,,7,8,7v4[8:1],,65,,7b,,1,,
3^8[8:1],,5,5,3,,7,7,5,6,4,5,3,4,2,4,
1b,5,4,5,8b,6,5,6,7b,7,5,5,3b,3,1w5[44.6#28:1],1,
8h[8:4]/2h[8:4],,,,,,,,,,,,1b,,,,
7b/3b,,2h[8:1],,1,,81,,7h[8:1],,8,,12,,3h[8:1],,
4,,6,5,7,4,8,3,1-5[8:1],2,1,,3>6[8:2],,3,,
4b,,,,,,5,4,6h[8:1],,7h[8:1],,8h[8:1],,2,1,
3,4,1,8,4,5,8,7,5-8[8:1]*-2[8:1],,64,,5b,,,,
3,4,4,5,4,4,3,4,4,5,4,4,5h[8:1]/3h[8:1],,,,
6,5,5,4,5,5,6,5,5,4,5,5,7b,6,5,4,
2b,4,4,4,1b,4,4,4,8b,5,5,5,7b,5,5,5,
6b,5,7,6,8,7,1,8,{32}2,3,4,5,8,7,6,5,{16}1b,,,,
{8}3>5[8:4],1h[8:5]/2b,,,,,,,
4q5[8:4],8h[8:5]/4,,,,,,,
5<3[8:4],5/7h[8:5],,,,,,,
{16}2b,4,3,5,8b,6,1,7,2b,2,1,3b,3,5,5b/4b,,
7b,,65,,7,5,65,,7,5,6,65,,1,8/1,,
2b,,34,,2,4,34,,2,4,3,34,,8,18,,
{24}6,5,6,4,5,4,6,5,6,3,4,3,5,4,5,3,4,3,
{16}5,5,4,4,3bqq7[8:4],,,,,,,,,,4,,4
,,,,,,,,,,,,,,,,
,,,,,,,,,,,,,,,,
