&title=まっすぐ→→→ストリーム!
&artist=曲:本多友紀(Arte Refact)/歌:日向 千夏(CV:岡咲 美保)
&first=0
&des=triv→→→lizer
&des_6=triv→→→lizer
&lv_6=14+
&inote_6=(184)
{1},
{16}1,,1,,28,,7,8,6,4,5,3,1-5[8:1],2,8,1,
{8}7-3[8:1],7,4-8[8:1],4,6-2[8:1],6,1-5[8:1],1,
{8}6-2[8:1],6,4-8[8:1],4,7-3[8:1],7,1-5[8:1],1,
{8}7-3[8:1],7,4-8[8:1],4,6-2[8:1],6,1-5[8:1],1,
{8}8-4[8:1],8,3-7[8:1],3,5-1[8:1],6,2-6[8:1],3,
{8}8-4[8:1]/2,7,3-7[8:1]/8,2,5-1[8:1]/3,6,2-6[8:1]/5,3,
{8}8-4[8:1]/2,7,3-7[8:1]/8,2,5-1[8:1]/3,6,2-6[8:1]/5,3,
{8}8-4[8:1]/2,7,3-7[8:1]/8,2,5-1[8:1]/3,6,25,3,
{16}7-5[12:1]/2,,8,1,7,,3,4,1-5-3[6:1]*-5-7[6:1],8,2,7,1,,,,
{8}2x,2,3/7-5[12:1],3,2/7-1[12:1],2,37,3,
{8}2/4V68[6:1],2,34,3,2,2,3/7h[8:1],3,
{8}25,2/5-7[12:1],3,3/5b-1[8:1],2,2/5bpp4[4:1],3,3/5b,
{8}2,2,3,3,2-6[8:1],2,28,8,
{8}7/3V51[6:1],7,63,6,7,7,62,6,
{8}7/5V31[6:1],7,65,6,7,7,6/2h[8:1],6,
{8}74,7/4-2[12:1],6,6/4b-8[8:1],7,7/4bqq5[4:1],6,6/4b,
{8}7,7,6,6,7,
{48}7/2x,3x,4x,,,,8x,7x,6x,,,,
{16}2,2,
{8}31,8,8,
{48}7/2x,3x,4x,,,,
{8}8,8,
{48}2/7x,6x,5x,,,,
{8}2,
{48}3/7x,8x,1x,,,,
{8}4,4,
{48}7/3x,2x,1x,,,,
{8}6,6,
{48}3/7x,8x,1x,,,,
{8}3,
{48}6/2x,3x,4x,,,,
{8}7,7,
{48}8b/4b,7x/3x,6x/2x,
{16}5x/1x,,,
{48}5b/1b,6x/2x,7x/3x,
{16}8x/4x,,,
{48}8b/4b,7x/3x,6x/2x,
{16}5x/1x,
{8},26,
{48}3x/7x-3[8:1],4x/8x,5x/1x,,,,
{8},4-1[8:1],4,8,8,
{48}2/7x,6x,5x,,,,
{8}1,1,
{48}7/2x,3x,4x,,,,
{8}8,8,
{48}3/7x,6x,5x,,,,
{8}3,
{48}6/2x,1x,8x,,,,
{8}5,5,
{48}2/6x,7x,8x,,,,
{8}3,3,
{48}6/2x,1x,8x,,,,
{8}6,
{48}3/7x,6x,5x,,,,
{8}2,2,
{48}1b/5b,2x/6x,3x/7x,
{16}4x/8x,,,
{48}4b/8b,3x/7x,2x/6x,
{16}1x/5x,,,
{48}1b/5b,2x/6x,3x/7x,
{16}4x/8x,
{8},26,15,
{16}37,6,54,3,2,1,87,6,5,4,
{32}8b>8[4:1],1>1[4:1]b,2>2[4:1]b,3<3[4:1]b,
{8},
{32}4h[4:1]/8b,E1,E2,E3,E4,E5,E6,E7,E8,,,,
{8},4x-8[8:1],,
{8}6,6>2[8:1],6,7,7-3[8:1],7,6,6,
{32}1b<1[4:1],8<8[4:1]b,7<7[4:1]b,6>6[4:1]b,
{8},
{32}5h[4:1]/1b,E1,E8,E7,E6,E5,E4,E3,E2,,,,
{8},5x-1[8:1],,
{8}3,3,3,
{48}2/7x,6x,5x,,,,
{8}2,2,
{48}3-8[8:1]/8x,7x,6x,,,,
{8}3,
{8}35,6V47[6:1],17,2,3,2-6[8:1],8<5[8:1]/1,2,
{8}8-4[8:1],4,3-7[8:1]/8,2,3/5-1[8:1],6,35,2,
{8}37,15,37,15,26,48,26,48,
{16}1,7,3,5,2,8,4,6,
{24}1,8,1,8,1,8,
{16}2,7,3,6,
{2}4b<8[8:1]*>8[8:1]/5,
5b-8[8:1]/4v1[8:1],
{4}4bz8[6:1]/5,8b-5[8:1]/4,6b-2-8[6:1]*-2-4[6:1],6b,
{8}5x-1[8:1]/7x,6,2-4[12:1]/5,3,8-4[8:1]/2,7-5[12:1],8,7-3[8:1],
{8}1>4[8:1],7-5[12:1],1,7,8-4[12:1]b,2,8b/3x,2,
{8}1-5[8:1]/5,7,2<7[8:1]/1,4,6-2[8:1]/2,5,4-8[8:1]/6,3,
{8}5>2[8:1]/4,6,5/7,
{16}8-4[12:1]b,1,7-5[12:1]b,,8b,,7b,,3,,
{8}4-8[8:1]/1,3,7-5[12:1]/4,6,1-5[8:1]/7,2-4[12:1],1,2-6[8:1],
{8}8<5[8:1],2-4[12:1],8,2,1-5[12:1]b,7,1b/6x,7,
{8}8-4[8:1]/4,2,7>2[8:1]/8,5,3-7[8:1]/7,4,6<1[8:1]/3,5,
{8}2b/6,3,4-1[8:1]/5b,
{16}2,6,4b-7[8:1],5,5,,24,,3,,
{8}5x-1[8:1]/7x,6,2-4[12:1]/5,3,8-4[8:1]/2,7-5[12:1],8,7-3[8:1],
{8}1>4[8:1],7-5[12:1],1,7,8-4[12:1]b,2,8b/3x,2,
{8}1-5[8:1]/5,7,2<7[8:1]/1,4,6-2[8:1]/2,5,4-8[8:1]/6,3,
{8}5>2[8:1]/4,6,5/7,
{16}8-4[12:1]b,1,7-5[12:1]b,,8b,,7b,,3,,
{8}4-8[8:1]/1,3,7-5[12:1]/4,6,1-5[8:1]/7,2-4[12:1],1,2-6[8:1],
{8}8<5[8:1],2-4[12:1],8,2,1-5[12:1]b,7,1b/6x,7,
{8}48,37,26,15,26,37,48,51,
{16}4,8,2,6,4,8,2,6,3-1[12:1]*-1[12:1],7-3[12:1]b,3-5[12:1],7,,,,,
{2},
{16}3,3,5,5,4,4,6,6,
{8}1h[1:2],,5,5,,4,4,,
{8}6,,5,5,,4,4,,
{8}7h[4:7],,3,3,,4,4,,
{8}2,,3,3,,4,4,,
{8}28,2-6[9:1]/8,28,2/8<5[8:1],,
{24}8/4-8[8:1],3,2,
{8}1,3h[4:1]/4,
{8},7,26,
{16}5<8[8:1],5,
{8}3,
{24}51,2,3,
{8}4,,
{8}71,7-3[9:1]/1,71,7/1>4[8:1],,
{24}1/5-1[8:1],6,7,
{8}8,6h[4:1]/5,
{8},2,73,
{16}4>1[8:1],4,
{8}6,
{24}48,7,6,
{8}5,,
{8}28,2-6[9:1]/8,28,2/8<5[8:1],,
{24}8/4-8[8:1],3,2,
{8}1,3h[4:1]/4,
{8},7,26,
{16}5<8[8:1],5,
{8}3,
{24}51,2,3,
{8}4,,
{8}2-5[8:1]/6,3/7-4[8:1],2,7,
{16}1,1,8,8,2,2,37,,
{16},,4,4,35,,26,,8,8,1,1,27,,36,,
{32}7x,6x,5x,,,,1x,2x,3x,,,,4x/8x,3x/7x,2x/6x,,
{16},,4,5,2b-4[12:1]/7b,,1,,
{8}2-8[12:1],5,2-6[8:1],5,2,7<4[8:1],8,7-1[12:1],
{32}1x,2x,3x,,
{8}7,
{32}2xv8[8:1],3x,4x,,8x,7x,6x,,2,,,,7x,6x,5x,,
{16}3,,8,1,
{32}2-6[8:1]/7x,6x,5x,,
{16}3,,2,,7,4,3-1[12:1]/8,,
{32}7x-3[8:1],6x,5x,,
{8}3,7,
{8}4,6-2[8:1],
{32}1x,2x,3x,,
{8}6,4-1[8:1],3,4/7-3[8:1],8,
{16}72,,1,,6-1[8:1]/2h[16:3],,,5,63,4,5,,7h[8:1]/4-1[8:1],,3,,
{16}46,5,,6,3-8[8:1]/7,4,6,5,3,5,4,,45,,6,,
{16}2,5,3,4,2,7,1,8,5,6,3,4,2,8,5,7,
{24}2,3,4,8,7,6,1,2,3,7,6,5,
{32}1,2,3,4,5,6,7,8,1-5[8:1],,,,,,,,
{8}6,6,63,6,6,64,63,6,
{8}64,6,64,63,6,63,64,6,
{8}64,6,63,6,6,64,63,6,
{8}64,6,64,63,6,63,64,6,
{8}35,3,36,3,3,35,36,3,
{8}35,3,35,36,3,36,35,3,
{8}35,3,36,3,3,35,36,3,
{8}35,3,35,36,3,36,35,3,
{8}74,7,74,7,7,7,74,7,
{8}7,7,74,7,7,7,74,7,
{8}25,2,25,2,2,2,25,2,
{8}2,2,25,2,2,2,25,2,
{8}78,71,72,73,7-3[8:1]/4,75,76,,
{8}21,28,27,26,2-6[8:1]/5,24,23,,
{16}2,5,5,5,2,4,4,4,2,2,2,2,2,2,2,2,
{4}3x/4x,,,,
{4}8-5[8:1]*z4[8:1],8,7-3[8:1]/1V35[8:1],17,
{8}2-6[8:1]/6,1,2/5<8[8:1],4,5/1-3[8:1],3-8[8:1],16,5-1[8:1],
{8}7-3[8:1],5>2[8:1],7p5[4:1],5,7,,1b-4[8:1],2,
{8}1/5-8[8:1],7,2-7[8:1]/5,4,2/6-3[8:1],5,1-6[8:1]/6,2,
{16}1>4[8:1],,7,,1-5[8:1]/8,,6-2[12:1]b,6,1>4[12:1]b,,6b,,1b,,5,6,
{8}7-3[8:1]/3,8,7/4>1[8:1],5,4/8-6[8:1],6-1[8:1],83,4-8[8:1],
{8}2-6[8:1],4<7[8:1],2q4[4:1],4,2,,8b-5[8:1],7,
{8}8/4-1[8:1],2,7-2[8:1]/4,5,7/3-6[8:1],4,8-3[8:1]/3,7,
{16}8b<5[8:1],,2,,8-4[8:1]/1b,,3,3,8bw4[8:1],2,2,,8b,,,,
{8}2-6[8:1]/6,1,2/5<8[8:1],4,5/1-3[8:1],3-8[8:1],16,5-1[8:1],
{8}7-3[8:1],5>2[8:1],7p5[4:1],5,7,,1b-4[8:1],2,
{8}1/5-8[8:1],7,2-7[8:1]/5,4,2/6-3[8:1],5,1-6[8:1]/6,2,
{16}1>4[8:1],,7,,1-5[8:1]/8,,6-2[12:1]b,6,1>4[12:1]b,,6b,,1b,,5,6,
{8}7-3[8:1]/3,8,7/4>1[8:1],5,4/8-6[8:1],6-1[8:1],83,4-8[8:1],
{8}2-6[8:1],4<7[8:1],2q4[4:1],4,2,,8b,8,
{8}37,26,15,84,15,26,37,84,
{16}7,1,5,3,8,2,6,4,7v1[16:1]*v5[8:1],1-3[16:1],5-3[16:1]b,3,7,,,,
{2},
{16}3,3,5,5,4,4,6,6,
{8}2-6[8:1],2,5-1[8:1],5,3-7[8:1],3,8-4[8:1],8,
{8}3-7[8:1],3,5-1[8:1],5,2-6[8:1],2,8-4[8:1],8,
{8}2-6[8:1],2,5-1[8:1],5,3-7[8:1],3,8-4[8:1],8,
{8}1-5[8:1],1,6-2[8:1],6,4-8[8:1],3,7-3[8:1],6,
{8}1-5[8:1]/7,2,6-2[8:1]/1,7,4-8[8:1]/6,3,7-3[8:1]/4,6,
{8}1-5[8:1]/7,2,6-2[8:1]/1,7,4-8[8:1]/6,3,7-3[8:1]/4,6,
{8}1-5[8:1]/7,2,6-2[8:1]/1,7,4-8[8:1]/6,3,74,6,
{16}2-4[12:1]/7,,1,8,2,,6,5,
{24}8-4-6[6:1]*-4-2[6:1],1,8,1,8,1,
{16}8,,,,
{8}E7,,,E6,,,E5,,
{8}E2,,,E3,,,E4,,
{8}B8,,,C,,,B4,,
{8}B1,B5,B3,B7,C,
{16}D7,A6,D6,,A4/E4/D4,
E
