&title=Spade
&artist=黑桃影
&first=-1.734
&lv_5=13+
&des_5=伊拉莎玛
&inote_5=
(110){4},,,,{16}8/1-4[8:5],
{8},{16}1/8-5[32:3],{32},,,,,A8,E8,B7,B6,{16},,,{32}1<5[32:3],{16},,,1,
4-1[32:19],{8},{16}4/5-8[32:3],,,,{32}E6,B6,{16}B7,{8},{16}4,{32},,,,,8,{16},8h[8:3],
{8},{16}7,{8},6,,6/4h[8:3],5,3s7[8:1],
{4},1,{2}1s5[8:1]/5s1[8:1],
8pp8[8:1]*-5[8:1],1-6[8:1]*-4[8:1],
4-1[8:1]*pp4[8:1],2-6[8:1]/3<2[16:3],
{16}4-7[8:1],{8},{16}5,{8},6-1[8:1],,1-6[8:1],2,3-8[8:5],
3b,{4},,,{8}7,
7h[8:7],{4},{8}8,,6,5,4h[8:1],
6h[8:1],3h[8:1],5h[8:1],2h[8:5],,4,3,1,
8h[8:7],1,7,6,5,4,3,2,
{16}1-4[16:7],{8},{16}7,{8}1,6,6h[2:1],{4},{8}2,
2h[8:7],{4},{8}1,,3,4,5h[8:1],
3h[8:1],6h[8:1],4h[8:1],7h[8:5],,5,6,8,
1h[8:7],8,2,3,4,5,6,7,
{16}8-5[8:1],{8},{16}2,{8}8,3-7[8:1],3h[8:3],{4},{8}8,
8h[8:3],{4},{8}7h[1:1],,6,5,4,
3,2,1,8h[2:1],,7,6,5h[2:1],
1,2,3,4h[8:5],5,6,7,8,
{16}1h[16:3],{8},{16}2h[16:13],{8},3s7[8:1],3,{4},{8}1,
1h[8:3],{4},{8}2h[1:1],,3,4,5,
6,7,8,1h[8:3],{4},{8}2v5[8:1],2,
7-3[8:1],7,,1,{16}1h[8:1]/8h[8:1],{8},{16}2h[8:1]/7h[32:5],{8},3h[16:1]/6h[32:1],
{2}4-1[8:1]/5-8[8:1],{32}1/8,7/2,3/6,4/5,{8},,,1-5[8:1],
1<6[16:1],1,1-5[8:1],1>4[16:1],1,1-5[8:1],1<6[16:1],
1,1-5[8:1],1>4[16:1],1,1-5[8:1],1<6[8:1],1,1,
8-4[8:1],8<5[16:1],8,8-4[8:1],8>3[16:1],8,8-4[8:1],8<5[16:1],
8,8-4[8:1],8>3[16:1],8,8-4[8:1],8<5[8:1],8,8,
1-5[8:1],1-6[8:1],1-7[32:1],1-5[8:1],1-4[8:1],1-3[32:1],1-5[8:1],1-6[8:1],
1-7[32:1],1-5[8:1],1-4[8:1],1-3[32:1],1-5[8:1],1-6[8:1],1-7[32:1],1,
1w5[16:1],{4},{8}2/8,{2}1w5[1:1],
{1},4b-8[2.7273##0.2727],
{4},5,{16}1,8,{8}1>4[16:1],,{48}8,7,6,5,{6},{8}2-4[8:1],
4-6[8:1],2-4-6-8-2[4:1],6-8-2-4[16:3],8-2-4[16:1],{16},,,8-4[8:1],
{32},,,,,1,,,,1,{16},,,8/7,6/1,{8}5/2<6[16:1],,{48}6V82[8:1],5,4,3h[16:3],{6},{8}6,
5-8[8:1],5-2[12:1],{4}5q1-4[8:1],{8}1,8w4[8:1],
,8,{4},{16}7,3,{8}7h[4:1],,{48}3,8/4-8-2-6[48:17],5/1,6/2,{6},{8}4/6,
5,7,{6}8,{12}8,6,,6,
{8}5-1[16:1],5,4-8[16:1],4,{16}1/Cf,{8},{16}2,{8},3,
{3}4h[6:1]/5h[6:1],4-1[8:1]/5-8[8:1],{1},,,{4},,,{12},{6}5/4-8[8:1],
{12}3,3-7[8:1],,2,
{6}2-6[8:1],{12}1,1-5[8:1],,8-4[8:1],{6}8,{12}7-3[8:1],7,,6-2[8:1],
{6}6,{12}5-1[16:1],5w1[4:7],{6},,,,,,,,,,,,,{4}5h[6:1]/1-6[8:1],
4h[6:1]/1-4[8:1],
6h[6:1]/1-5[8:1],3h[6:1]/1>4[8:1],7h[6:1]/1-6[8:1],2h[6:1]/1-4[8:1],
8h[6:1]/1-5[8:1],4h[6:1]/1>4[8:1],{2}8/1-4[2:3]*s5[2:3],
,,,{6}4/5,
{12}4/5,4/5,,3/6,
{6}3/6,{12}2/7,2/7,,8/1,{16}1h[8:1]/8h[8:1],{8},{16}1h[8:1]/8h[8:1],{8},1h[16:1]/8h[16:1],
{2}1-4[8:1]/8-5[8:1],{32}1V35[8:1]/8p6[4:1],2/7,3/6,5/4,{8},{4}8/1-5[8:1],
{6}1,{12}6>3[8:1],6,{24},{8}5h[4:1],,2,1,8-4[12:1],
7,6-2[12:1],5,4h[4:1],,5,3/6,3/6,
2/7,7/2,{4}8/1V35[8:1],{32}1/6,7,8,1,{8}2w6[8:1],,2,
,1,8,7,{4}2/6h[4:1],Ch[8:7],
{8}8,8h[4:1],,,,{16}8-4[8:1],1,{8}8,8/1,
1,8,{16}7,{8},{16}6,{4}6h[4:1]/2-7[8:1],2,
{8}5/1,5/1h[4:1],,Ch[16:13],{16},,,,,,,,,,,2,
2h[4:1],{8},{16}1,{4}1<6[8:1],2V48[8:1],
{8}5,5h[4:1],,8h[4:1],,{16}7-3[8:1],8,{8}7,8/7,
8,1,{16}2,{8},{16}3,{4}3h[4:1]/7<4[8:1],7,
{8}1,1w5[8:7],{4},,,,,{16}3,
6,{8}3<6[16:1],,{48}3/6,7,8,1,{6},{8}2-5[12:1],
2,3-6[12:1],3,4-1[8:1],,4/5-8[8:1],
,1,{4}1h[8:3],{16}8,8,{8}8>3[16:1],,{48}7/8,6,5,4V27[8:1],{6},{8}4,
5-8[12:1],5-2[12:1],{4}5q1-4[8:1],{8}1,8w4[8:1],
,8,{4},{16}4/5,4/5,{8}4/5,,{48}4/5,6/3,7/2,1/8-4-6-2[4:1],{6},{8}8/1,
2,3,{6}5,{12}5,7,,7,
{8}8-4[16:1],8,1-5[16:1],1,{16}4/Cf,{8},{16}3,{8},2,
{3}1h[6:1]/8h[6:1],1-4[3:2]/8-5[3:2],{6},,,,,{4}4>1[12:1]/5<8[12:1],
4/5,
{16}1/2-6[12:1],{8},{16}8,{8}2,7-3[12:1],,7/8,1,2-7[12:1],
3,4,5-1[12:1],6,,8,2/7,2/7,
3/6,6/3,{4}5/4>8[8:1],{32}4/8,7,6,5,{8}4w8[8:1],,4,
{2},{16}8/1-4[16:9],{8},{16}1/8-5[16:1],,,,A8,
A5,{8},{16}1<5[12:1],{8},1,{16}4-1[8:5],{8},{16}4/5-8[8:1],{48},,,,,,,A5,{24},B6,
{48},E8,,,,,,,,{16}4,{4},{16}1/8-5[16:9],{8},{16}8/1-4[16:1],,,,A1,
A4,{8},{16}8>3[24:1],{32},,,,,8,{16},4h[8:1]/5h[8:1],{8},{16}3h[8:1]/6h[8:1],{8},2h[16:3]/7h[16:3],
,8/1-5[8:1],1/8,1/8,8-4[8:1],8,1,2-6[8:1],
2,3,4-8[8:1],4,5,6-2[8:1],6,7,
8-4[8:1],8,1,2-6[8:1],2,3,4h[8:1],{32}8,1/5,2/6,3/7,
{1}4/8,
E
