&title=壱雫空
&artist=MyGO!!!!!
&first=0.8
&des=椎名-8lufs
&lv_6=13+
&inote_6=(204)
{4}1^7v5[4:1]*^3v5[4:1],
,,,8^6v4[4:1]*^2v4[4:1],,,,5v3^1[4:1]*v7^1[4:1],,,,4v6^8[4:1]*v2^8[4:1],,,,8<4<8[8:6],
{8}4,4,3,3,2,2,1>5>1[8:6],,5,5,6,6,7,7,8b,
{16}2,7,2,,81,,2,7,3,6,4,5,3,6,4bv6^8[6:1]*v2^8[6:1],,,,,,,,,,
{16}1x,8x,7x/2x,,,,
{16}
3,,24,,1x,8x,1x,,6,,75,,8x,1x,8x,,3,,24,,2x,4x,2x,,6,,75,,7x,5x,7x,,3,,24,,3x,4x,3x,,6,,75,,6x,5x,6x,,3,,24,,4x,5x,4x,,6,,75,,5x,4x,5x,,3,,24,,1x,8x,1x,,6,,75,,8x,1x,8x,,7bx/2bx,,3,6,3,,4x/5x,,,,5bx/4bx,,,,4bx/5bx,,,,4,,8bx,,,,5bxh,6,5,6,5xh,6,5,6,5xh,6,5,6,
5xh,6,5x,6,5h,6,5x,6,
5h,6,5x,6,
5bx,6x,5x,6x,
5bx,6x,5x,6x,
5bx,6x,5x,6x,
5bx,6x,5x,6x,2bx,,,,2bx,,,,4x/5x,,4x/5x,,,,7bx/2bx,,,,4,,35,,4x,5x,3x/6x,,4,,6,,2b,,,,3x,4x,5x/2x,,3,,6,,4,,7,,1b,,,,1x,8x,2x/7x,,3x,6x,4x,,7,,2,,8bz4[4:1],,,,,,,,,,,,1,8,7b/2b,,,,
{8}35,6,2,8,75,4,6,1,52,7,3,8,28,2,6,4,45,7,3,8,62,3,5,4,45,3,
{16}72,,1,8,2,7,3,6,4,5,4b,,,,4,5,36,,2,,74,,8,,3,,8b,,,,1,8,72,,7,,3,5,4,6,3,5,4,6,2bh[32:1],,,,,,,,,,,,,,,,,,,,,,,,,,,,,,1b,,,,3,,42,,6,,75,,2,,83,,7,,64,,3,,82,,6,,53,,2,,64,,8b,,,,6,,75,,3,,42,,6,,82,,3,,45,,7,,81,,2,4,3,5,4,6,5,7,5b,,,,,,6h[1:1],,,,,,,,C,,,,,,,,C,,35,,2b,,,2b,,,2b,,,,5,,7bh[2:1],,,,,,,,C,,,,18,,2x,7x,3x,6x,4x,,5h[32:1],,2,,7,,1b,,,,3,,24,,6,,81,,2,,53,,7,,64,,2,,53,,7,,64,,1,,53,,8b,,,,6,,75,,3,,42,,5,,64,,3,,24,,5,,45,,4,5,3,6,2,7,1bx^4[8:1],,8x,,1bx^6[8:1],,,,1b-4[8:1],,,,1b-6[8:1],,,,1b-5[8:1],,,,1b-7^6[8:1],,,,1b-3^4[8:1],,,,1bw5[8:1],,,,1b,,,,4bx/5bx,,,,74,,3,,82,,7,,64,,4x,5x,4bx,,7,,2,,5,,45,,4x,5x,4x,,63,,42,,3x,5x,3x,,24,,6,,75,,2,,8,1,7,,72,,72,,4x,6x,3,5,4,6,3,5,4,6,3b^5v7v1^3[16:24],,,,,,,,,,,,,,,,,,,,,,,,,,,,,,,,
1b-4[8:1],,8,,7-4[8:1],A4,8,,1-4[8:1],,8,,7-4[8:1],A4,8,,1-4[8:1],,8,,7-4[8:1],A4,8,,1-4[8:1],,8,,7-4[8:1],A4,8,,2b-5[8:1],,1,,8-5[8:1],A5,1,,2-5[8:1],,1,,8-5[8:1],A5,1,,2-5[8:1],,1,,8-5[8:1],A5,1,,2-5[8:1],,1,,8-5[8:1],A5,1,,1-4[8:1],,1,,8-5[8:1],A4,8,,1-4[8:1],,1,,8-5[8:1],A4,8,,2-7[8:1],,2,,6-3[8:1],A7,6,,2-7[8:1],,2,,6-3[8:1],A7,6,,1-5[8:1],,1,,7-4[8:1],A5,7,,2-6[8:1],,2,,8-4[8:1],A6,8,,8b/2b,,2-5[8:1],,2,,2b/7b,,7-4[8:1],,7,,7b/1b,,,,2-5[8:1],,2,,2b/1b,,,,7-4[8:1],,7,,7b/8b,,,,3-8[8:1],,3,,3b/4b,,,,6-1[8:1],,6,,6b/5b,,,,2-6[8:1],,2,,2b/8b,,,,7-3[8:1],,7,,7b/1b,,,,1-5[8:1],,1,,8b/1b,,6x,4x,7x,3x,8x,2x,1bx,,,,1b-4[8:1],,,,7/1b-5[8:1],,7,,7/1b^4[8:1],,7,,7/1b,,7,,8b^5[8:1]/1b,,,,2/8b-4[8:1],,2,,8b^5[8:1]/2,,2,,8b-4[8:1]/2,,2,,8b/2,,3x,5x,3x,,8x,,1x,,7x,,4x,,5xv7^1[16:10],,1bx^3v5[2:1],,,,,,,,,,,,,,,,1b^4[8:1],,7,,1-5[8:1],8,7,,1^4[8:1],,7,,1-5[8:1],8,7,,1^4[8:1],,7,,1-5[8:1],8,7,,1^4[8:1],,7,,1-5[8:1],8,7,,1b^4[8:1],,7,,1-5[8:1],8,7,,1^4[8:1],,7,,1-5[8:1],8,7,,1^4[8:1],,7,,1-5[8:1],8,7,,1^4[8:1],,7,,1-5[8:1],8,7,,1b/7-4[8:1],,7,,2-5[8:1],A4,2,,8-4[8:1],,8,,1-5[8:1],A4,1,,6-3[8:1],,6,,2-7[8:1],A3,2,,5-1[8:1],,5,,4-8[8:1],A1,4,,7-3[8:1],,7,,2-6[8:1],A3,2,,2b/8b,,7x,4x,6x,3x,5xh[16:1],,
{12}4bx/2bx,,3bx/5bx,,4bx/6bx,,7bx/5bx,,2bx/4bx,,2bx/7bx,,
{32}1bx^3v5[8:12]*^7v5[8:12]/8x,7bx/2x,3bx/6x,4x/5bx,
