&title=Romance's Terminus
&artist=void
&first=0.5
&des=Nostalgia Op.4 No.4
&lv_5=14
&inote_5=(148)
{8}34,,,45,,,
56,,,7,
,,37,,26,,
4p5[2:1]/5,,,6,,8,7,7-3[8:2],,,,,,,,,65,,,
54,,,4/3,,,2,,,26,,37,
{32},,,,4-8[8:2],,,,
{8},,,,6,7,2pp5[8:6]/8qq5[8:6],,,,,,,,,,,
3,2,1,28,3/7<4[4:1],,,,2,3,4,35,4q5[3:1]/6,,,,
8,7,6,5,4,3,2>5[4:1],,,,
8,,1/7,,2/8qq4[4:3],,,2,,1,2,3,,,,,
{32}36,,,,,,,,27,,,,,,,,2>8[8:9]/7,,,,,,,,,,,,,,,,,,,,
1,,,,2,,,,3q8[4:1],,,,,,,,,,,,,,,,,,,,,,,,
56,,,,47,,,,38,,,,1<6[4:1]/2,,,,,,,,,,,,
{48}2,3,4h[12:13],
,,,,,,,,,
{32},,,,,,,,,,,,,,,,,,,,,,,,,,,,5,,,,
{48},,,,,,
{32}6<4[16:12],,,,,,,,6h[8:4],,,,,,,,,,,,
{48},,,,,,,,,,,,,,,,,,
{32}1h[8:7],,,,,,,,,,,,,,,,4,,,,,,,,,,,,
4,,,,3,,,,2,,,,2>5[3:1]/7h[8:10],
,,,,,,,,,,,,,,,,,,,,,,,,,,,,,,,8,,,,,,,,6,,,,
,,,,2h[8:4],,,,,,,,4,,,,,,,,1h[8:6],,,,,,,,5,,,,,,,,,,,,,,,,
5>7[8:5],,,,5h[8:4],,,,,,,,,,,,,,,,,,,,,,,,5,,,,
46,,,,37,,,,
{16}2/8p4[8:1],,,,2/8,,1>4[6:1],,,,
6,,7,,8qq4[4:1],,,,8,,,,1,,1w5[8:1],,,,1,,,,
2/1q5[8:1],,,,7/1,,8<5[6:1],,,,
3,,2,,1pp5[4:1],,,,1,,,,8,,7<5[8:1],,7,,1>3[8:1],,1,,
6-8[8:1],,,,6/5,,3-1[8:1],,,,5/3,,4V25[4:1],,6-1[8:1],,4,,6,,,,5,,
5-2[8:1]/1-6[8:1],,,,1/5,,,,
7-5[8:1],,,,7/8,,2-4[8:1],,,,8/2,,1-6[8:1],,2-5[8:1],,1,,2,,,,4,,
17,,,,
{32}8,,8,,8,,8,,
{4}1b/7b-5[8:1],78,6/4-8[8:1],43,1/2-4[8:1],28,7/5-1[8:1],54,
{4}8/3-1[8:1],34,2/8-4[8:1],87,5/6-8[8:1],64,3/1-5[8:1],18,
{8}64,7,35,2,64,7,35,2,65,7,34,2,65,7,34,2,15,6,84,3,15,6,84,8,73,3,26,6,15,1,8-3[8:1]/4-7[8:1],,8b/4b,,
{16}73,,6,5,6,,3,4,3,,6,5,6b,,3,4,2,,6,5,7,,3,4,2,,6,5,7b,,
{16}3,5,2,,6,4,7,,3,5,2,,6,4,7b,,3,4,1,,6,5,8,,3,4,1,,6,5,8b,,3,3,,
{16},6,6,,,5,5,,,4,4,3h[8:7],,7,7,,
{16},6,6,,,5,5,,,4,4,2h[8:7],,8,8,,
{16},6,6,,,5,5,,,4,4,1h[8:5],,3,3,,
{16},5,5,,,7,7,1,2,3,4,5b/1b,,,,,,7,5,6,4,5,3,4,2,3,1,5,,,,,,8,8,8,,2,7h[8:1],,3,6h[8:1],,4,,7,5,,8,83,,25,,2,4,,6h[16:1]/1,1,,7,8,7,2,1,2,3,,,,,,
{16}34,5,62,7,8h[8:1],,2,7h[8:1]/2,,1,6h[4:1]/1,,8>4[4:1],,,,
{16}8/4,5,6,7,8h[8:1],,3,7h[8:1]/3,,4,6h[4:1]/4,,5<1[4:1],,,,
{16}1/5,2,3,4,5,,,,,,1,1,1,,7,5h[8:1],,6,4h[8:1],,53,,2,12,,7,7h[4:1]/8h[4:1],,,,,,
{16}1-5[8:1],2,3,4,1b/5,,,,,,2,4,3,5,4,6,5,7,6,8,4,,,,,,1,1,1,,7,2h[8:1],,6,3h[8:1],,5,,2,4,,1,16,,74,,7,5,,3h[16:1]/8,8,,2,1,2,7,8,7,6,,,,,,
{16}65,4,37,2,1h[4:1]/8,,,,,,1,7,8,8,7,7,6,6,5,5,4h[4:1],,,,,,
{16}8,8,8,,2,4h[8:1],,3,5h[8:1],,46,,7,17,,,1,3,2,4,3,5,4,6,5,
{32}7q1[16:5],8,1,,,,,,,,,,,,,,,,6-2[8:1],,,,,,,,6,,,,4,,,,
{16}4b/3b,,2-5[8:1],1,2,,82,,7-4[8:1],8,7,,71,,2,,56,,7-4[8:1],8,7,,17,,2-5[8:1],1,2,,28,,7,,
{16}65,,3,4,2,4,1,,6,5,7,5,8,,82,,
7/1,,3>1[8:1],4,5,,3/8,7,6,5,4/8,,1/5,,2/6,,
{16}4b/8b-4[8:1],,6,1,8,,17,,2-5[8:1],1,3,,28,,7,,15,,2-5[8:1],1,3,,82,,7-4[8:1],8,6,,71,,2,,
{16}34,,6,5,7,4,8,,3,4,2,5,1>4[8:1],,72,,
{16}1,,6,5,6,7,6,8,6,1,6,2,{32}3,4,5,6,7,8,1,2,
{16}3/7,,7-4[8:1],8,6,8,7,,2-5[8:1],1,3,1,2,,8,,34,,2-5[8:1],1,3,1,2,,7-4[8:1],8,6,8,7,,1,,
{16}56,,3-8[8:1],4,2,4,3,,6,1,7,2,8,3,1,4,38,,6-1[8:1],5,7,5,6,,3,8,2,7,1,6,8,5,
{16}16,,2,1,3,1,2,8,3,7,5,6,4,5,3,4,1,8,2,7,8,6,8,7,2,4,3,5,4,6,5,7,
{8}84,84,73,73,62,62,51,51,
{24}4,8,4,8,{16}4,8,{12}5,1,6,2,{8}7,3,,
{8}
4/5<4[4:11],,,,3h[4:1],,,,
2h[4:1],,,,1h[4:1],,,,
8h[4:1],,,,7h[4:1],,,,
6h[4:1],,,,5h[4:1],,,,
5/4>5[4:11],,,,6h[4:1],,,,
7h[4:1],,,,8h[4:1],,,,
1h[4:1],,,,2h[4:1],,,,
3h[4:1],,,,4h[4:1],,,,
{12}
7,6,5,1,2,3,8,7,6,2,3,4,
7,6,5,1,2,3,6,5,4,8,1,2,
4,5,6,3,4,5,2,3,4,1,2,3,
6,7,8,5,6,7,4,5,6,7,8,1,
3,4,5,1,8,7,2,3,4,8,7,6,
1,2,3,4,5,6,8,1,2,3,4,5,
3,2,1,5,6,7,4,3,2,6,7,8,
3h[16:1],4h[16:1],2h[16:1],6h[16:1],5h[16:1],7h[16:1],3h[16:1],1h[16:1],2h[16:1],6h[16:1],8h[16:1],7h[16:1],
{8}
4b,,3,5/2,1,2,5/3,,7/5,6,,2/4,3,,7qq4[2:1]/3-1[8:1],,7/3,,,
1,,2,3,4>6[2:1]/5,,5,,,5,,5,,
5/4,,6,4/7,8,7,4/6,,2/4,3,,7/5,6,,6pp1[2:1]/2-4[8:1],,6/2,,,
4,,4,3,5<3[2:1]/2,,4,,,4,,4,,
1/8,,3,4/2,5,2,3>8[8:1]/4,,,,6,7/5,4,7,6<1[8:1]/5,,4,,3,2/4,5,3,4/5,6,7/5,4,,,
4/8,,3qq8[2:1]/7qq4[2:1],,3/7,,,,,2,3,4/6,,6,,,3/7,,1pp4[2:1]/5pp8[2:1],,1/5,,,,,
{8}2/5,1,6/8,,5/6,,,
{16}7w3[8:1],7,7,7,7,,,,
{48}1b/8b,27,36,
{16}4h[16:21]/5h[16:3],,,,,5h[16:4],,,,,,6h[16:4],,,,,,7h[16:4],,,,,,
4h[16:2]/7h[16:2],,,,56,,,,
{48}81,27,36,
{16}5h[16:21]/4h[16:3],,,,,4h[16:4],,,,,,4h[16:4],,,,,,1h[16:4],,,,,,
5h[16:2]/2h[16:2],,,,5/2>5[12:1],,,,
{48}2/5,6,7,
{16}8h[16:21],,,,,6h[16:4],,,,,,6h[16:4],,,,,,7h[16:4],,,,,,
1h[16:2]/8h[16:2],,,,27,,,,
{16}4h[16:22]/5h[16:4],,,,,,5h[16:4],,,,,,6h[16:4],,,,,,7h[16:4],,,,,,
4>1[12:1]/8<5[12:1],,,,48,,,,
{48}51,26,37,
{16}8h[16:3]/4h[16:21],,,,,{48}8,7,6h[24:5],,,,
{16},,,,6h[16:4],,,,,,5h[16:4],,,,,,4h[16:2],,{48}1,8,7,,,,,,,
2,3,4,5h[8:1],,,,,,
1<5[24:4],,,,,,,,,,,,,,,,,,5,4,3,2h[16:15],,,,,,,,,
{16},,5h[16:4],,,,,,6h[16:4],,,,,,
7/4pp8[4:1],,2h[16:2],,4,,,,
3h[16:10],,,,,,{48}1,8,7,{16}6h[16:15],,,,,4h[16:4],,,,,,
5h[16:4],,,,,,6h[16:2]/7h[16:2],,,,6p1[8:1]/7,,,,3h[16:14]/6,,,,,,
1h[16:2],,,,,,7h[16:2],,,,,,4h[16:2]/5h[16:2],,,,,,
4-1[10:1]/5-8[10:1],,6/3,,4/5,,,,
{48}1/8,27,36,
{16}4h[16:23]/5h[16:3],,,,,5<2[16:6],,,,,,,,,,,,,,
,,,,3h[16:8],,,,1,,,,8h[16:18],,,,,,6,,,,,,5,,,,,,4-8[8:1],,,,,,
2>5[8:1],,,,2/8qq4[3:1],,,,2/8,,,,,,2h[16:6],,,,,,7h[16:6],,,,
,,1h[16:6],,,,,,3,,4,,5>8[3:1]/2,,6,,7,,,,5,,6h[16:6],,,,
3,,2h[16:6],,,,7,,8h[16:4],,,,5,,4>1[8:1]/6<1[8:1],,,,4/6,,,,
7-5[8:1],,,,7/8,,,,4-8[8:1],,,,4/3,,,,1-3[8:1],,7/8,,1,,,,
4h[8:1]/7h[8:1],,,,1-5[8:1]/5,,,,
1/5,,,,6-8[8:1],,4/5,,6,,,,1/2,,,,8-4[8:1]/3,,2,,6/8,,,,4-8[8:1]/7-5[8:1],,,,
4/7,,,,
3-8[8:1],,3,,3/5-1[8:1],,5,,5/4-8[8:1],,4,,4/6-1[8:1],,6,,
6/2-5[8:1],,2,,2/8-4[8:1],,8,,8/1-5[8:1],,1,,1/7,,7,,
4,5,4,5,3,6,3,6,2,7,4,6,3,5,2,7,
{32}1,2,3,4,5,6,7,8,1,2/6,3,4,5,6,7,8,
1/5,4,3,2,1,8,7,6,5/2,4,3,2,1,8,7,6,5b/1b>4[8:1],,,,
{16}5,5,1-6[8:1],,6,6,1-4[8:1],,8,8,1<6[8:1],,5,5,1-5[8:1],,8,,
7/1-4[8:1],,8,,1-6[8:1]/3,,2,,1/7,,8,,1/4,,3,3,5,,2,2,8,,3,8,5,,7,2,4,,
3,4,1,,8,7,4/6,,1,,3/5,,8,,1/8-3[8:1],,2,2,
8-5[8:1],,4,4,8>3[8:1],,2,2,8<5[8:1],,4,4,
8-3[8:1],,1,1,8<5[8:1],,4,4,8-4[8:1],,2,,8,,1,,4/5,,6,5,7,,3,4,2,,7,8,6,,2,1,3,,
6,5,8-4[8:1],,2,,1-5[8:1]/8b,,,,1b/7<4[6:1],,,,,,,,
1b<6[8:1],,7,,1w5[8:1],,4,,1,,,,1,,8,8,1-5[8:1],,5,,
1/8-4[8:1],,7,,1/8,,,,1/8,,,,8-3[8:1],,3,,8-5[8:1],,5,,
8,,3,,1w5[8:1],,,,1b,,,,2-5[8:1]/6-1[8:1],,,,
2/6,,,,3b/7b,,2,2,8,,3,3,5,,3,4,
1-4[8:1],,5,,1-6[8:1],,8,,1-5[8:1],,5,,1>4[8:1]*<6[8:1],,,,
1,,,,
5/6,,
3,4,2,,6,5,7,,2,1,3,,7,8,6,,3,4,1,,6,5,7,,
3,,4z8[8:1]/5-8[8:1],,3/6,,4b/5b,,,,1-5[8:1],,2/8,,1,,,,
4/5,,3,3,4/5,,6,,4v7[8:1]/5,,,,4/5v2[8:1],,,,3-8[8:1]/5,,,,
3/6,,,,7-3[8:1],,8/6,,7,,,,
3/4,,2,2,3/4,,5,,3/4-1[8:1],,,,
7-3[8:1]/4,,7,,1v4[8:1]*v6[8:1]/7,,1,,1b,,,,5-1[8:1],,4/6,,
5,,,,2>5[8:1],,6,,2<7[8:1],,8,8,2-6[8:1],,5,,2/5-8[8:1],,,,
5/1>4[8:1]*<6[8:1],,,,1b,,,,4-8[8:1],,3/5,,4,,,,
7<4[8:1],,3,,7>2[8:1],,1,1,7-3[8:1],,4,,7/4-1[8:1],,,,8w4[8:1],,,,8b,,,,,,
{48}1,2,3,,,,{2},,
{16}2,,,,6,,,,4,,,,,,
{48}7,6,5,,,,
{16},,,,3,,,,,,2,,
,,,,1,,,,4,,,,7,,,,,,6,,,,,,3,,,,
1h[16:8],,,,3,,,,7h[2:1],,,,5,,,,4,,3,,,,2,,,,1,,5/6,,7,,
,,8,,,,1,,,,2,,3,5w1[4:3],4,6,5,,,,,,,,,,,,,,,,
,,,,,,,,,,,,,,,,4,,,5,,,6,,17,,,2,,4,3,,7,8,7,1,8,1,27,,,,,,
{16}3,4,3,4,2/5,,2,7h[8:1]/2,,1,6h[4:1]/1,,5,,2,,
{16}1,8,1,2,3h[8:1]/7,,6,2h[8:1]/6,,5,1h[4:1]/5,,4,,7,,
{16}1/5,6,7,8,1b/2b,,4,,1/7,,8,8,8,,7,5h[8:1],,6,4,,53,,2,12,,
{32}2/6,3/7,4h[4:1]/8h[4:1],,,,,,,,,,,,
{16}1-5[8:1],8,2,7,1b,,,,4/6,,2,4,3,5,4,6,5,7,6,8,4,,
7,8,6,,2,1,3,,7,2h[8:1],,6,3h[8:1],,5,,2,4,,1,16,,74,,7,5,,3h[16:1]/8,8,,2,1,2,
{32}7,6,5,,3,,4<7[6:1],,,,,,,,,,,,
{16}8,1,2,3,4h[4:1],,,,,,1,2,4,3,5,4,6,5,7,6,8h[4:1],,3,3,,,
{16}2h[8:1],,1,,2,4h[8:1],,3,5h[8:1],,4,,
7,5,8,,8,1,7,2,6,3,5,4>5[2:1],
{32}6,5,3,4h[8:3],,,,,{16},,,,,,4,,,4,3,3,2,2,
1-4[8:1],,2,8,1-6[8:1],,7,,1,,4-1[8:1],,5,,4,,
8-5[8:1],,7,1,8-3[8:1],,2,,8,,5-8[8:1],,4,,5,,
2-4[8:1],,1,8,2-6[8:1],,5,,2V48[4:1],,8,,2,,5,,
7,,1,2,3-8[8:1]/4,,7-4[8:1]/8,,3,,7,,1b,,,,
8-5[8:1],,7,1,8-3[8:1],,2,,8,,5-8[8:1],,4,,5,,
1-4[8:1],,2,8,1-6[8:1],,7,,1,,4-1[8:1],,5,,4,,
7-5[8:1],,1,2,3-1[8:1]/7,,4,,3-7[8:1],,7-3[8:1],,3,,,,
5,6,7,8,5/1,2,3,4,
{32}1/5,6,7,8,1,2,3,4,5b/1b,,,,,,,,
{16}1>4[8:1],,6,7,1/8<5[8:1],,5,,1/8,,4>1[8:1],,1/8,,4,,
6<1[8:1],,3,4,6/5>2[8:1],,2,,5/6,,1<6[8:1],,5/6,,1,,
4>1[8:1],,7,6,4/5<8[8:1],,8,,4/5,,1>4[8:1],,4/5,,1,,
7<4[8:1],,2,1,7/8>3[8:1],,3,,7/8,,4<7[8:1],,7/8,,4,,
2,,3,7,4,6,5,,1-5[8:1]/7,2/6,3/5-1[8:1],,1,,7,,
8,,7,6,5/3,,1,,8-4[8:1]/2,7/3,6/4-8[8:1],,8/2,,3,,
2,6,3,7,4,8,3,7,3,6,2,5,1,4,8,3,
{24}1/4,2/5,3/6,4/7,{16}5,6,{12}7,8,1,2,{8}3,
{16}1,8,7,6,
{4}5<4[8:28],,4h[8:2],,7h[8:2],,2h[8:2],,5h[8:2],,1h[8:2],,6h[8:2],,7h[8:2],,
4>5[8:28],,8h[8:2],,7h[8:2],,6h[8:2],,2h[8:2],,3h[8:2],,4h[8:2],,3h[8:2],,
{16}45,,,,,,2,4,3,5,4,6,5,7,1,8,
3,,,,,,7,7,7-3[8:2],,,8,,,1,,
1>4[8:1],,,7,,,8,,1<6[8:1],,,3,,,2,,
7,4,6,3,4,2,5,,,,,,46,3,2,1,
8b/4,,,,,,7,1,6,2,5,3,6,4,5,3,
4,,,,,,2,2,2-6[8:2],,,1,,,8,,
7b,,,,,,3,2,1,8,7,6,5,48,37,26,
1b/5b,,,,,,6-1[8:1]/2-5[8:1],,,,,,,,,,
{1}1b<5[8:31]/5h[8:14],,{6}5,4,3,{48}2,1,,
E
