&title=4nim0sity|99.999999999%|
&artist=イチ
&first=-0.7
&des=✞
&lv_5=13+
&inote_5=(144)
{4},,,,
{16},4h[32:67]/5h[32:67],,,,,,,{1},,
{8}3,3h[4:1],5,6,4,4h[4:1],6,7h[4:1],
{8}5,5-3[8:1],,8,8-6[8:1]*v5[8:1],,,,
{8}6,6h[4:1],2,3,7,7h[4:1],
{8}5V74[6:1],4,3,2,1V38[6:1],8,7,6,5-3[8:1]*v8[8:1],4,5,,
{8}7-5[8:1],4,7,1-3[8:1],4,1,6-8[8:1],
{8}7,2-4[8:1],3,6-8[8:1],5,1-5[8:1],2,
{8}81,,,25,1,1h[8:1],6,6h[8:1],8-4[8:1],5-7[8:1],,,3-1[8:1],8-4[8:1],,,
{8}2h[8:1],4h[8:1],3h[8:1],7h[8:1],Ch[8:1],{24}E7,B6,B5,{8}E5/8x,,
{8}3h[8:1]/7,8h[8:1],2h[8:1],6h[8:1],Ch[8:1],{24}E7,B7,B8,{8}E1/5x,,
{8}2h[8:1]/6,4h[8:1],3h[8:1],7h[8:1],Ch[8:1],{24}E7,B6,B5,{8}E5/8x,,
{8}3h[8:1],7h[8:1],1h[8:1],5h[8:1],3h[8:1],7,{24}6,5,6,5,,,
{8}7h[8:1]/3,5h[8:1],6h[8:1],2h[8:1],Ch[8:1],{24}E3,B3,B4,{8}E5/1x,,
{8}6h[8:1]/2,1h[8:1],7h[8:1],3h[8:1],Ch[8:1],{24}E3,B2,B1,{8}E1/4x,,
{8}7h[8:1]/3,5h[8:1],6h[8:1],2h[8:1],Ch[8:1],{24}E3,B3,B4,{8}E5/1x,,
{8}6h[8:1],2h[8:1],8h[8:1],4h[8:1],6h[8:1],2,{24}3,4,3,4,,,
{8}3-5[8:1]/6,2,6,7,2-6[8:1],1,6,7,
{8}8-4[8:1],8,3q5[8:2],3,6,7,8,,
{8}6-4[8:1],7,2,3,7-3[8:1],8,
{8}3,4,5-3[8:1],6,7-5[6:1],8,1-7[8:1],2,3V14[6:1],4,
{8}35,,6,5,3,2,7-5[8:1],8,4-7[8:1],3,2-4[8:1],1,5-2[8:1],6,7-5[8:1]*v4[8:1],8,7,,
{8},1,2/5h[8:1],2h[4:1],6,6h[8:1],8-4[8:1],5v7[8:1],,,3v1[8:1],8-4[8:1],,,
{8}2qq5[8:5],,,,E1,,7,8,1qq5[8:5],,,,E8,,4,3,2qq5[8:5],,,,E1,,6,7,
{8}8-4[8:1],,2-5[8:1],1,6v1[8:1],7,3h[16:1],3h[16:1],
{8}2qq5[8:5],,,,E1,,7,8,1qq5[8:5],,,,E8,,4,3,2qq5[8:5],,,,E1,,6,7,
{8}8-3[8:1],,5-1[8:1],,4w8b[8:1],,,,
{8}2/7h[8:1],4h[8:1],1h[8:1],6h[8:1],Ch[8:1],{24}5x,4x,3x,{8}2x/8,,
{8}7/2h[8:1],5h[8:1],8h[8:1],3h[8:1],Ch[8:1],{24}4x,5x,6x,{8}7x/1,,
{8}2/7h[8:1],4h[8:1],1h[8:1],6h[8:1],Ch[8:1],{24}5x,4x,3x,{8}2x/8,,
{8}2h[8:1],8h[8:1],4h[8:1],6h[8:1],2h[8:1],4,{24}3,4,3,{8}4,
{8}3h[8:1]/5,1h[8:1],4h[8:1],5h[8:1],Ch[8:1],{24}6x,7x,8x,{8}1x/2,,
{8}6h[8:1]/4,8h[8:1],5h[8:1],4h[8:1],Ch[8:1],{24}3x,2x,1x,{8}8x/7,,
{8}3h[8:1]/5,1h[8:1],4h[8:1],5h[8:1],Ch[8:1],{24}6x,7x,8x,{8}2/1x,,
{8}7h[8:1],1h[8:1],5h[8:1],3h[8:1],7h[8:1],5,{24}6,5,6,{8}5,
{8}7bV58[4:1]/4,8,3V14[4:1]/7,4,3,,8,7,
{8}2v4[8:1]/6,1,6v8[8:1]/2,7,3hx[8:1]/6,,4x,31,
{8}8bp6[4:1]/2,,8,{16}3,2,{8}1,5,2-4[8:1]/4,1,
{8}5-2[8:1]/2,6,5/1-5[8:1],8,6q7[4:1]/1,7,46,3,
{8}2qq5[4:1],,5,6,7-2[8:1],,4v1[8:1]/7,3,
{8}47,6,15,26,3-6-4[6:1]/7,,7,8,
{4}1qq5[8:2],3,2q5[8:2],6,7>4[6:1],E1/B8/B1,
{8}1,25,36,47,
{8}5/8bqq4[4:1],,4,3,2-7[8:1],,5v8[8:1]/2,6,
{8}25,3,48,37,6-3-5[6:1]/2,,3,2,
{8}1bq3[4:1],,1,{16}6,7,{8}8,4,7-5[8:1]/5,8,
{8}4-7[8:1]/7,3,4/8-4[8:1],1,3p2[4:1]/8,2,53,6,
{8}7p6[4:1],,1,2,3<6[8:1],,8v5[8:1]/3,7,83,2,16,27,
{8}3V52[6:1]/8,,1,8,{4}7pp4[4:1],3,2q5[4:1],6,7>4[6:1],E3/B2/B3,{8}1,26,36,47,
{8}74,{16}5,5,{8}6h[8:1],3h[8:1],Ch[8:1],{24}E3,B2,B1,{8}E1/4x,5x,
{8}25,{16}4,4,{8}3h[8:1],6h[8:1],Ch[8:1],{24}E7,B7,B8,{8}E1/5x,4x,
{8}74,{16}5,5,{8}6h[8:1],3h[8:1],Ch[8:1],{24}E3,B2,B1,{8}E1/4x,5x,
{8}42,5,64,57,4,53,{24}2,4,2,4,,,
{8}25,{16}3,3,{8}6h[8:1],2h[8:1],Ch[8:1],{24}E3,B3,B4,{8}E5/1x,8,
{8}72,{16}6,6,{8}3h[8:1],7h[8:1],Ch[8:1],{24}E7,B6,B5,{8}E5/8x,1,
{8}27,{16}3,3,{8}6h[8:1],2h[8:1],Ch[8:1],{24}E3,B3,B4,{8}E5/1x,8,
{8}67,4,35,42,5,46,{24}7,5,7,5,,,
{8}8-4[4:1],5,4,3,2-5[4:1],4,5,6,7v4[4:1],4,3,2,1-5[4:1],5,6,7,8z4[4:1],4,3,2,1s5[4:1],5,6,7,8-4[4:1],4,3,2,1>4[6:1],4,5p4[4:1],6,7,,
{8}7,8,1-5[4:1],3,2,1,8-4[4:1],6,7,8,1,3,2-4[8:1],2,8-2[8:1],,6,,
{8}4,8,2-4[8:1],2,8-2[8:1],,6-8[8:1],,4-6[8:1],,Ch[4:1],,
{1}8<1[8:13],7<8[8:13],6>7[8:13],5>6[8:13],4>5[8:13],3>4[8:13],2qq5[8:6],
{8}Ch[16:6],,,,
{8}E1/B8/B1,E5/B5/B4,E3/B2/B3,E7/B6/B7,
{8}3h[8:1],8h[8:1],5h[8:1],1h[8:1],Ch[8:1],{24}8x,7,6,{8}52,34,
{8}2/6h[8:1],1h[8:1],4h[8:1],8h[8:1],Ch[8:1],{24}1x,2,3,{8}47,56,
{8}7/3h[8:1],8h[8:1],5h[8:1],1h[8:1],Ch[8:1],{24}8x,7,6,{8}52,34,
{8}7h[8:1],6h[8:1],5h[8:1],7h[8:1],6h[8:1],5,{24}4,6,3,{8}5,
{8}3h[8:1]/5,1h[8:1],4h[8:1],5h[8:1],Ch[8:1],{24}6,7,8,{8}1/2,3,
{8}6h[8:1]/4,8h[8:1],5h[8:1],4h[8:1],Ch[8:1],{24}3,2,1,{8}8/7,6,
{8}3h[8:1]/5,1h[8:1],4h[8:1],5h[8:1],Ch[8:1],{24}6,7,8,{8}2/1,3,
{8}2h[8:1],3h[8:1],4h[8:1],2h[8:1],3h[8:1],4,{24}5,3,6,{8}4,
{8}4bV25[4:1]/7,12,5V74[4:1]/4,7,6h[8:1],,8,7,
{8}6/5V74[4:1],28,4-8[8:1]/5,3,3h[8:1],,2<5[6:1],7,
{8}28,,8x,{16}37,26,{8}15,6,2v5[8:1]/4,1,
{8}4-1[8:1]/2,6,7v4[8:1]/4,8,5-8[8:1]/7,3,2,3,
{8}4qq5[4:1],,54,6,7-2[8:1],,4v1[8:1]/7,3,
{8}47,6,15,26,3<6[8:1]/7,,8>3[8:1],7,
{4}8p7[4:1],4>1[8:1],4<7[8:1],3,{8}57,46,35,24,
{8}12,38,4h[16:1]/7h[16:1],5h[16:1]/6h[16:1],
{8}4/8bqq4[4:1],,4,3,2-7[8:1],,5v8[8:1]/2,6,
{8}25,3,48,37,6h[8:1]/2,,7>4[6:1]/3,2,
{8}71,,1x,{16}62,73,{8}84,3,7-5[8:1]/5,8,
{8}7v1[8:1]/5,4,3v5[8:1]/7,2,3-1[8:1]/8,7,36,5,
{8}4<7[8:1]/8,,1v4[8:1],2,7-1[8:1]/1,6,3-5[8:1]/7,2,8v5[8:1]/3,7,38,2,
{8}6V47[6:1]/1,,8,1,{4}2qq5[4:1],6,7p4[4:1],3,2<5[4:1],E7/B7/B6,{8}8,73,
{16}16,2,3,4,5/6b,,7,5,6pp5[4:1],,4,,{8}56,2,3,4,56,2,34,5,56,2,34,5,56,
{16}7,7,4>2[12:1],,8,,47,,6,,4>2[12:1]/7<5[12:1],,8,,4v5[8:1]/7,,,,
{8}1,2,36,27,{16}18,7,6,5,43,,2,4,3qq4[4:1],,5,,{8}43,7,6,5,43,7,65,4,43,7,56,4h[8:1],
{24}3x,2,1,8,7,6,5h[4:1]x/4,,,,,,6x,7,8,1,2,3,4z8[8:1]/5s1[8:1],,,,,,{8}45,,27,45,2-5[8:1]/7-4[8:1],36,,,
{16}8b/1,,2,3,4>2[8:1]/5-2[8:1],,6,,A5/A4/E5,,,,4>1[8:1]/5p1[8:1]
,,6,,A5/A4/E5,,,,4>8[8:1]/5p8[8:1],,6,,A5/A4/E5,,,,4>5[4:1]/5p4[4:1]
,,6,,{32}A4/A5,A3,A2,A1,A8,A7,A6,,
{16}E5f,,,,{8}35,2,17,6,3/5-2[8:1],6,7-4[8:1]/5,8,1-6[8:1]/7,2,3qq4[4:1]/1,4,53,,6>3[8:1],7,8,,87,35,2qq5[4:1]/1,6>3[8:1]/4,2,,,,36,47,
{24}5x-1[8:1]/8,6,7,8,1,2,{8}3h[4:1],,{24}2x,1-5[8:1],8,7,6,5,{8}4h[4:1],,{24}6x-3[8:1],7,8,1,2,3,,,,,,,{16}28,,37,,4,6,3,5,{8}2qq5[8:6],,,,,,,,2xqq5[8:6],,,,,,,,2xqq5[8:6],,,,,,,,2xqq5[8:6],,,,,,,,Ch[2:2],,,
