&title=幻想楼閣
&artist=橋本みゆき
&first=0
&des=Sakurago
&clock_count=4
&lv_5=13
&inote_5=(120.00)
{1},,
{8}E2/Ch[8:6],,,,4h[8:4],,,,
{8}6h[8:2],,7h[8:2],,8-4b[8:1],,,,
{16}2h[16:3],,,3h[16:3],,,4,,
7h[16:3],,,6h[16:3],,,5-2V84[8:3],,
{8}3h[8:4],,,,,,2x/5x,,
{16}6/4>2[8:1],,,7h[16:9],,,,,
1h[8:4],,,,,,,,
{16}4<6[8:1],,,3h[16:9],,,,,
Ch[8:4],,,,,,,,
{16}1qq6[8:3]*pp4[8:3],,,,,,,,
,,,,A2/D3/A3/A6/A7/D7,,,,
{8}4b/8b,2b/6b,4b/8b>7b[8:2],2b/6b,4b/8b,,{64}Cf,,,,,,,,{8},
{16}2x/6x,,3,4,2,,1/5,,
7,4,7,,6/3V16[8:2],,4/5,,
{16}3/6<3[8:2],,,,8x,,,,
5,4,6,5,7,6h[8:1],,,
{16}5-2[8:1]/8-4[8:1],,,,5/8,,,,
1/5,1/5,,7/3,7-4[8:1]/3,,1-5[8:1]/8,,
{8}7>2[8:1],1,7,4,{16}8x,3,5,4,6,2,7,4,
{16}3x/5x,,2,1,3,,4/8,,
6,1,6,,7/2V47[8:2],,4/5,,
{16}2/7<2[8:2],,,,8x,,,,
8,1,7,8,6,4h[8:1],,,
{16}2/5,,2,,2/8,,2,,
1/4,1/4,,5/8,5/8,,1/4,,
{16}2b,7,4,5,1b,8,3,6,
{32}2b,3,4,5,6,7,8,1,
2b/Cf,,,,
,,,,
{16}6hx[8:2],,5,5,4h[8:2],,5,,
7h[16:3],,8,8h[16:3],,,6h[8:1],,
{8}3h[8:1],4,2h[8:1]/5h[8:1],,{16}3/6v5[8:1],,4,4,,,,,
{16}2h[8:2],,1,1,8h[8:2],,1,,
3h[16:3],,4,4h[16:3],,,2,,
{8}1h[8:1]/5h[8:1],,3h[8:1]/7V16-4[16:5],,{16}5,,,3,3,,,,
{16}2h[8:2],,4,4,6h[8:2],,5,,
1h[16:3],,8,8h[16:3],,,4,,
{8}3/7,2/6,1qq7[24:4]/5qq3[24:4],4/8,1xv4[8:1]/5xv8[8:1],,,,
{16}6h[8:1],,1,1,3/5,,8,,
1/6-2[8:1],,2-6[8:1],,,,4xqq1[16:7],,
{8}5xpp8[16:5],,,,,,A2/B2/B3/A8/B7/B8,,
{16}1/5-8[8:1],,2,2,,3,,4,
8x-5[8:1],,5,,4,,3,,
{16}5/2q8p2[8:3],,4/7,4/7,,,,,
,,,,1/7,,,,
{16}6/2-5[8:1],,7,7,,8,,1,
5x-2[8:1],,8,,7,,6,,
{16}1pp8[16:5]/5pp4[16:5],,3/7,3/7,,,,,,,,,1/6,,4,,
{16}5/3>7>3[8:3],,8,8,,6,,6,
,,4,,2/5,,4/6,,
{16}3/7>3>7b[8:3],,1,1,,4q5[8:2],,4,
,,,,,,8,7,
{16}6-1[8:1]/4,,3,3,
,,2,3,
8/4v1[8:1],,6,6,
,,8x,8x,
{8}2bx<7[24:3]/7x,,3bx>6b[48:9],,4bx>5[24:6],,E5,,
{16}E8f,B8f,B1f,E2f,,,E4f,B4f,B5f,E6f,,,B7/B2/Cf,,,,
{16}2/7-3[8:1],,4>1[8:1],8,,,4,,
6-2[8:1],,8q4[8:1],5,,,8,,
{8}7V16[16:3],6,5-1-4[16:3],4,{16}3-7-1[16:3]*-7-5[16:3],,2x,2x,,,,,
{16},,3,5,4>1qq7[16:5],,5/6,,
8,,,5,,,8,,
{8}1b/2b,3/4,1bq6[8:1]/2bq7[8:1],3/4,{48}1b/2b,B3,B4f,B5,,,{8},1/8,5/6,
{16}7/3-7[8:1],,8<5[8:1],4,,,8,,
2-6[8:1],,4q8[8:1],1,,,4,,
{8}3V52[16:3],2,1-5-8[16:3],8,{16}7w3[8:1],,6x,6x,,,,,
{8}1<6[8:1]/2>5[8:1],,{32},E1/E3,E8/E4,E7/E5,,,,,{8}4v2[8:1]/8v6[8:1],3/7,,,
{16}1b,5,4,5,7b,5,4,5,
{32}1b,2,3,4,5,6,7,8,
1b/Cf,,,,,,,,
{16}6/2v5[8:1],,7-2[8:1],3,,,7,,
4v1[8:1]*v6[8:1],,8,3,,,,,
{8}7V58[16:3],8,1-5-2[16:3],2,{16}3p5[8:2]*>5[8:2],,4x,4x,,,,,
{16},,1,4,3V57V13[16:6],,2/4,,
6,,8,8,,,7,,
{8}4b>1[8:1]/5bp8[8:1],3/6,{48}5b<8[8:1]/4bq1[8:1],E4,E3f,E2,,,{8},{48}4b/5b,E6,E7f,E8,,,{8},3/4,7/8,
{16}2/6-2[8:1],,1>4[8:1],5,,,1,,
7-3[8:1],,5p1[8:1],8,,,5,,
{8}6b,2/5,3b/4,6/5,{16}4bv2[8:1]/7bv5[8:1],,3/8,3/8,,,,,
{16}1/6<2[8:2],,,,2>6[8:2],,C,,6<2b[8:2],,,,2>6b[8:2],,C,,
{8}6<4[16:5]*q4[16:5],,,,,,2/6,8/4,
{16}E2f,E6f,E3f,E7f,E4f,,A8f,A7f,A6,A5f,A4f,,Cf/B7/B6/B3/B2,,,,
{16}2b/8b,,6,5b/7b,,4/3,2b/5b,,
{16}1b-5b[12:1]/8b-4b[12:1],,,,{48},E1,C,E5,,,{16},,
{16}7x/3x>8[8:1],,,,,,6,,
6>3[8:1],,,,C,,,,
{16}5/1<6[8:1],,,,,,4,,
4>1[8:1],,,,B8,,,,
{16}2/7-4[8:1],,,,,,,,
2-6[8:1]*q6[8:1]/5,,,,,,,,
{8}4/7h[8:2],,6h[8:2],,5-2[8:1]*-1[8:1],,,,
{16}3,,3,,2/5,,4,7,
2,1,2,,3/8,,,,
{16}6,,6,,7/4,,5,2,
8,1,8,,7p4[8:3]/2,,,,
{8}1h[8:2],,,3V57-1[8:3],B1/Ch[8:2],,,2<3[8:3],
{8}3h[8:2],,,2z6b[16:3],1h[32:28],,,,,,
{32},B3`E4,B4,B5`E5,5bx<4[8:24],,,,{8},,,,,,
{8},,,,{16},,,,,,,,
{8},,,,,,,,
{8},,,,,,,,
{8},,,,,,,,
&inote_6=
