&title=天下黄金
&artist=せきこみごはん feat. 初音ミク
&first=0
&des=黄金三九
&clock_count=4
&lv_5=13+
&inote_5=(66.6667)
{1},
||1
{24}6h[48:8]/5h[48:8],,,,,,
{24}6h[48:8]/4h[48:8],,,,,,
{24}6h[48:8]/3h[48:8],,,,,,
{24}6h[48:8]/2h[48:8],,,,,,
{24}3h[48:8]/4h[48:8],,,,,,
{24}3h[48:8]/5h[48:8],,,,,,
{24}3h[48:8]/6h[48:8],,,,,,
{24}3h[48:8]/7h[48:8],,,,,,
{24}2pp1[48:8],,,,7,,
{24}5pp4[48:8],,,,,,
{24}8h[48:8],,,,,,
{24}2,4,3,5,4,6,
{24}1qq5[48:8],,,,2,,
{24}4qq8[48:8],,,,,,
{24}5h[48:8],,,,,,
{24}6,8,7,3,1,2,
||2
{24}8-4[48:4]/1,,7,5,6,,
{24}8/2V48[48:6],,1,,1,,
{24}2/5w1[48:4],,6,,7,,
{24}5,,,,,,
{24}7-3[48:4]/3,,6,4,5,,
{24}7/1-5[48:4],,2,,2,,
{24}1/8w4[48:4],,7,,6,,
{24}8,,,,,,
{24}2<7[48:4]/6,,3,3,4,,
{24}7p4[48:8]/2,,6,6,5,,
{24}3<2[48:8]/7,,2,,1,,
{24}3/6,,,,,,
{24}7p4[48:8]/5,,8,,1,,
{24}3>5[48:8]/7,,,,,,
{24}3/7b>5[48:8],,,,,,
{24},,,,,,
||3
{24}6>2[48:6],,7,,8,,
{24}1s5[48:6],,,,,,
{24}6<2[48:6],,6,,6,,
{24}4h[48:8],,,,,,
{24}4-7[48:4]/3V51[48:6],,,,2,,
{24}4/3,,,,,,
{24}2V46[48:6]/6V42[48:6],,,,8,,
{24}6/2,,,,,,
{24}1qq4[48:8],,5,,3,,
{24}7h[48:8],,,,,,
{24}6>7[48:8],,8,,2,,
{24}4h[48:8],,,,,,
{24}3V58[48:6]/5V38[48:6],,,,8,,
{24}3/5,,,,,,
{24}2/7<8[48:9],,,,1/8,,
{24}7/2b-6[48:24]*-6[48:24],,,,,,
||4
{24},,,,,,
{24},,,,,,
{24},,,,,,
{24},,,,,,
{24}3h[12:2]/4,,,,5h[24:2],,
{24}4h[12:2],,,,6h[24:2],,
{24}5h[12:2],,,,7h[24:2],,
{24}1-5[48:3],8,2,8,2,8,
{24}1<6[48:3],,,,3,,
{24}1>4[48:3]/2,,,,7,,
{24}1w5[48:3]/8,,7,,2,,
{24}1b,,,,,,
||5
{24}3>4[12:2]/6,,,,4p8[12:1],5h[24:5],
{24}3,,,,,,
{24}7pp4[12:2],,,,1/8,2h[24:5],
{24}7,,,,,,
{24}3qq5[24:4],,4,,5,,
{24}6/3,,7,,7,,
{24}4z8[24:3]/6,,3/5,,2/4,,
{24}3,,,,,,
{24}1b/7bp6[24:4],,,
,8,1,
{24}7>6[24:4]/2h[24:4],,,,,,
{24}3/7pp5[24:4],,,,2,3,
{24}4h[24:4],,,,,,
{24}3<2[24:4],,4,,2,,
{24}5h[24:4]/3pp1[24:4],,,,,,
{24}7bz3[24:3]*V16[24:3]/3,,,,,,
{24},,,,,,
||6
{24}2-6[16:1]/5,,1,7,4,5,
{24}2b/6b,,7,,7,,
{24}4/8-4[12:1],,7,3,5,2,
{24}1/8,,3,,3,,
{24}2/6-2[12:1],,7,8,1,2,
{24}3>8[24:2]/6,4,5-1[24:2],,,7,
{24}3V57[24:3]*q8[24:3],,5,,2,,
{24}3,,,,,,
{24}1>4[16:1]/8,,4,5,6,7,
{24}1b-5[12:1]/8b,,6,,7,,
{24}1/8,,7,,8,,
{24}2/1,3,4,5,6,7,
{24}8<5[12:1]/1,,5,4,3,2,
{24}8-4[12:1]/1,2,3,,,2,
{24}1/8,,2,,1,,
{24}7/8,6,5,4,3,2,
||7
{24}1/8-5[24:2],,7,,2,,
{24}8-3[24:2]/1,,2,,6,,
{24}8p5[24:4]/7,,5,,3,,
{24}1/8,,,,,,
{24}2/4-1[24:2],,3,,5,,
{24}4-7[24:2]/6,,5,,3,,
{24}4s8[24:3]/2,,1,,7,,
{24}4/5,,,,,,
{24}7v5[24:2]/1,,6,,8,,
{24}1>4[24:2]/7,,2,,8,,
{24}6V84[24:3]/1,,5,,3,,
{24}6/4,,,,,,
{24}2<3[24:4],,3/4,,5/6,,
{24}7q8[24:4]/2,,,,,,
{24}7<8[24:4]/1b,,,,,,
{24},,,,,,
||8
{24}7<8[12:2],,1,8,2,,
{24}7/3qq4[12:2],,,,,,
{24}3>4[12:2]/7,,6,6,6,,
{24}5/3,,,,,,
{24}7>5[12:2],,2,3,5q1[12:1]/4,,
{24}1/7,,,,,,
{24}3<1[12:2],,7,8,1q5[12:1]/2,,
{24}3/5,,,,,,
{24}6pp4[12:2],,7,8,1,,
{24}3V15[12:2]/6,,4,3,2,,
{24}5V73[12:2]*s1[12:2]/3,,4,5,6,,
{24}5,,,,,,
{24}2q5[12:2]/4,,1,8,7,,
{24}6<4[12:2]/2,,,,,,
{24}6/3b>5[12:2],,,,,,
{24},,,,,,
||9
{72}3,4,3,,,,{24}2,1,8,,
{72}6,5,6,,,,{24}7,8,1,,
{24}2/4p1[24:4],,3,8,1,6,
{24}4/5,,,,7,,
{24}2/8,,3,5,4,6,
{24}2h[24:1],8h[24:1],1h[24:1],5h[24:1],4h[24:1],6h[24:1],
{24}3qq5[24:4],,6,2,8,,
{24}3/7h[24:4],,,,,,
{24}6/5,,7,8,1,2,
{24}3/4,,2,1,8,7,
{24}5qq8[24:4]/6,,1,2/8,3/7,4/6,
{24}5h[24:4],,,,,,
{24}7p4[24:4],,8,1,8,2,
{24}7,,,,3,,
{24}2>1[24:4]/5,,1,8,1,7,
{24}2/6,,,,,,
||10
{72}3,4,3h[72:10],,,,{24},,7,4,
{72}6,5,6h[72:10],,,,{24},,,,
{24}1s5[24:3]/4,,2,6,2,,
{24}8h[24:4]/1,,,,,,
{24}4/6h[24:4],,,,1,,
{24}3h[24:4]/7,,,,4,,
{24}5V31[24:3]/2,,1,,8/7,,
{24}5/6,,,,,,
{72}7,8,7h[72:10],,,,{24},,2,6,
{72}4,5,4h[72:10],,,,{24},,,,
{24}2/7>6[24:4],,6,4,5,,
{24}3h[24:4]/7,,,,,,
{24}2V84[24:4]/7V15[24:4],,4/5,,3/6,,
{24}2/7,,,,,,
{24}3<1[24:4]/6,,2/7,,1/8,,
{24}3/6b-2[24:12]*-2[24:12],,,,,,
||11
{24},,,,,,
{24},,,,,,
{24},,,,,,
{24},,,,,,
{24}3,4,5,4,5,6,
{24}3,4,5,4,5,6,
{24}2/7,1,8,7/1,8,1,
{24}7-4[24:1]/2-5[24:1],8,1,2/8,1,8,
{24}2b/7b,,,,,,
{24},,,,,,
{24},,,,,,
{24},,,,,,
{24},,,,,,
{24},,,,,,
E
