&title=Operation: Zenithfall
&artist=かめりあ
&first=0
&des=maimai DX fa featured artist gf tb grand finals tiebreaker sing toybot vikala heilia midorijeon funny venerablenyanta noffy sakura006 coppertine enkrypton dreamxiety -_arisu_- redcxca -pineapple- boolmaster_flex electronic instrumental english
&lv_6=15+
&inote_6=(210){1},,,
{8}6h[4:1]/5h[4:1],,,6h[4:1]/5h[4:1],,,6h[4:1]/7h[4:1],,,8h[4:1]/7h[4:1],,,
{8}7b/8<6[2:1]*<5[4:3]*<4[1:1]*<3[4:5]*<2[4:6]*<1[4:7],,,,,,,,,,,,,,,,,,,,
{4}5/4q5[1:2],,,,,,,,5<4q5[1:2],,,,,,,,,,,,
(230){8}6b,6,
{16}4b,5,3,5,4,,6,,2b,,2b,,
{32}2b,3,4,5,2,3,4,5,1,,,,7b,6,5,4,7,6,5,4,8,,,,1b,2,3,4,1,2,3,4,,,,,8b,7,6,5,8,7,6,5,,,,,
{16}2b,8,2b,8,2b,8,2b>1[1:1],,,,,,,,,,,,,,,,,,,,,,,,,,,,,,,,,,
{32}7b,6,5,4,7,6,5,4,8,,,,2b,3,4,5,2,3,4,5,1,,,,8b,7,6,5,8,7,6,5,,,,,1b,2,3,4,1,2,3,4,,,,,
{16}7b,1,7b,1,7b,1,7b<8[1:1],,,,,,,,,,,,,,,,,,,,,,,,,,,,,,,,,,
{32}2b,3,4,5,2,3,4,5,1,,,,7b,6,5,4,7,6,5,4,8,,,,1b,2,3,4,1,2,3,4,,,,,8b,7,6,5,8,7,6,5,,,,,
{16}2b,8,2b,8,2b,8,2b>1[1:1],,,,,,,,,,,,,,,,,,,,,,,,,,,,,,,,,,
{12}6b,5,6,4,5,4,6,5,6,3,4,3,5,4,5,3,4,3,5bw1[8:1],5,5,5b,,,
{16}3b,7,3,7,3,7,3,7,2,8,2,8,3,7,3,7,2,8,2,8,
{24}1,1,1,1,1,1,1,,,,,,
{12}3,4,3,
{32}6b/2b,,,,6b/2,3,4,5,,,,,6b,,,,6b/2,3,4,5,,,,,5b,,,,5b/1,2,3,4,,,,,1b,8/2,7/3,6/4,5,,,,,,,,
{16}2b,8,2b,8,2b,8,2b>1[1:1],,,,,,,,,,,,,,,,,,,,A1,A2,A3,A4,A5,A6,A7,A8,A1,A2,A3,,,,
{32}7b/3b,,,,3b/7,6,5,4,,,,,3b,,,,3b/7,6,5,4,,,,,4b,,,,4b/8,7,6,5,,,,,8b,7/1,6/2,5/3,4,,,,,,,,
{16}7b,1,7b,1,7b,1,7b<8[1:1],,,,,,,,,,,,,,,,,,,,A8,A7,A6,A5,A4,A3,A2,A1,A8,A7,A6,,,,
{32}6b/2b,,,,6b/2,3,4,5,,,,,6b,,,,6b/2,3,4,5,,,,,5b,,,,5b/1,2,3,4,,,,,1b,8/2,7/3,6/4,5,,,,,,,,
{16}2b,8,2b,8,2b,8,2b>1[1:1],,,,,,,,,,,,,,,,,,,,A1,A2,A3,A4,A5,A6,A7,A8,A1,A2,A3,,,,
{12}7,5,6,2,4,3,6,5,7,3,4,2,7-5[8:1],7,,1-3[8:1],1,,8-4[8:1],8,,2,2,,
{16}2b,6,2,6,2,6,2,6,2,6,2,6,2,,5,,8b,5,8,5,8,5,8,5,8,5,8,5,C1f/E2/E6,,,,
{16}1b/5b,,,,7-4[8:1],,7,,2-5[8:1],,2,,8-4[8:1],,8,,1-5[8:1],,1,,7-3[8:1],,7,,1>4[8:1],,1,,5,6,7,8,
{16}1bh[4:1],,,,2-5[8:1],,2,,7-4[8:1],,7,,8-3[8:1],,8,,6>3[8:1],,6,,8,,8,1,2h[8:1],,8,7,6h[8:1],,4,3,2bh[4:1],,,,
{16}7-3[8:1],,7,,1>4[8:1],,1,,5,6,7,8,1b-5[8:1],,1,,3h[4:1],,,,
{24}7,6,5,4,3,2,1,8,7,6,5,4,
{8}2bh[4:1]/3bh[4:1],,,62bh[4:1]/5bh[4:1],,,2bh[4:1]/4b,,
{16}5b,3,4,3,6b,4,5,4,7b,5,6,5,8b,,,,
{16}2b,4,3,4,3,4,2b,4,3,4,3,4,,2,2,,7b,5,6,5,6,5,7b,5,6,5,6,5,,7,7,,
{16}1b,4,1,4,1,4,1,4,1,4,1,4,1,4,1,,8b,5,8,5,8,5,8,5,8,5,8,5,8,5,8,,
{16}4b,4,5,5,3,3,6,6,2,2,7,7,1,1,8,8,1b,8,1,8,1,8,1,8,
{32}1b,2,3,4,5,6,7,8,1b,2,3,4,5,6,7,8,1b/C1f,,,,,,,,,,,,,,,,,,,,,,,,,,,,,,,,
{12}7,5,6,2,4,3,6,5,7,3,4,2,
{16}8b/3b,,2>4[8:1],,1,,8-2[8:1]/2-6[8:1],,,,8<5b[8:1]/2,,,,4,,4,,,,6-8[8:1]/2v5[8:1],,,,6/2,,,,7/4,,,,
{16}8-6[8:1],,1-5[8:1],,8>1-3<6[4:1],,1,,8b,,,,
{48}A8f,D1,A1,D2,A2,D3,A3,D4,A4,D5,A5,D6,
{16}1-3[8:1],,8-4[8:1],,1<8-6>3[4:1],,8,,1b,,,,
{48}A1f,D1,A8,D8,A7,D7,A6,D6,A5,D5,A4,D4,
{16}6b/1b,,7-5[8:1],,8,,7-3[8:1]/1-7[8:1],,,,7/1>4b[8:1],,,,5,,5,,,,
{16}7v4[8:1]/3-1[8:1],,,,7/3,,,,2/5,,,,3,4,3,4,3h[8:1],,7,5,6,5,7h[8:1],,2,4,3,4,2h[8:1],,
{16}5,3,5,3,5,3,
{24}5,4,3,2,1,8,7b/3b,,,,,,
{16}6b/1b,,7-5[8:1],,8,,7-3[8:1]/1-7[8:1],,,,7/1>4b[8:1],,,,5,,5,,,,
{16}7v4[8:1]/3-1[8:1],,,,7/3,,,,2/5,,,,
{16}1-3b[8:1],,8-4[8:1],,1<8-6>3b[4:1],,8,,1b,,,,
{48}A1f,D1,A8,D8,A7,D7,A6,D6,A5,D5,A4,D4,
{16}8-6b[8:1],,1-5[8:1],,8>1-3<6b[4:1],,1,,8b,,,,
{48}A8f,D1,A1,D2,A2,D3,A3,D4,A4,D5,A5,D6,
{16}1b,5,1,5,1,5,1,5,1,5,1,5,1,5,1,5,2b,6,2,6,2,6,2,6,2-7b[8:1],6-3[8:1],2,6,,,,,
{1},,
{4}1-5-7-2[4:6],,,,,,,,3-5-8-2[4:6],,,,,,,,3-8-5-2-7b[4:14],,,,,,,,3-6-1-4-7[4:6],,,,,,,,
{8}5b/3h[4:1],,,3h[4:1]/5,,,3h[4:1]/4,,,3h[4:1]/4,,,3h[4:1]/4,,,5/3,
{8}5b/3h[4:1],,,3h[4:1]/5,,,3h[4:1]/4,,,3h[4:1]/4,,,3h[4:1]/4,,,5/3,
{8}2b/4b,5,5,6b/4b,3,3,2b/4b,1,1,6b/8b,7,7,8b/1b,1/8,1/8,1/8,
{32}1bh[8:1]/7b,6,5,4,3,,,,,,,,8bh[8:1]/2b,3,4,5,6,,,,,,,,
{8}6bqq1[4:3]/2bqq5b[4:3],,,,,,,,,,
{24}2-5[8:1]/1,8,7,6,5,4h[6:1],2b,,,,,,
{8}7/4-7[8:1],8,1>4[8:1]/4,2,8-4[8:1]/1,7,
{24}8/5,4,3,2-5[8:1],,,1,,,2/5,6,7,8,,,,,,
{16}8/4,,6,5,7<4[8:1],,8,1,7,,3,,2/1,,5/4,,7b,8,6,2b,1,3,6b,4,5,3,7,1,6/2,,,,
{24}7-4[8:1]/8,1,2,3,4,5h[6:1],7b,,,,,,
{8}5-2[8:1]/2,1,8<5[8:1]/5,7,8/1-5[8:1],2,
{24}1/4,5,6,7<4[8:1],,,8,,,7/4,3,2,1,,,,,,
{16}1/5,,3,4,2>5[8:1],,1,8,2,,6,,7/8,,5/4,,2b,1,3,7b,8<2[4:1],6,1b,5,8,,,,C1f,,,,
{16}7-3[8:1]/8-4[8:1],,,,7b/8b,,,,1-4[8:1],,5,5,1<6[8:1],,5,5,1-5[8:1],,5,5,1-3[8:1],,8,7,6/1b-5[8:1],,7b-3[8:1],6,5/1,,7,,2b-8[8:1]*-6[8:1],,,,2,,,,7/5,,6/4,,
{16}5/3b,,4/2b,,5/1b,,7,8,7,,6b/5b,,3,4,3,,5b/2bh[4:1],,,,
{16}4q8[8:1],,4,,2q6[8:1],,2,,1,,1,,1/5,4/8,3/7,,2p6[8:1],,2,,4p8[8:1],,4,,3,,3,,1/2,8/3,4/7,,
{16}6b,5,6,5,6,,2b,4,3,4,2,,
{24}6b,4,5,3,,,
{6}1h[12:1]/6h[12:1],1h[12:1]/5h[12:1],1h[12:1]/4h[12:1],1h[12:1]/3h[12:1],1h[12:1]/2h[12:1]
,1h[12:1]/8h[12:1],
{1}8b-5-2-7-4-1-6-3[1:7]/1b-6-3-8-5-2-7-4b[1:7],,,,,,,,
{16}6b/2b,,,,3,5,3,5,3,5,3,5,3,5,3,5,2,6,2,6,2,6,2,6,2,6,2,6,2,6,2,6,1,7,1,7,1,7,1,7,1,7,1,7,1,7,1,7,8,8,8,8,8,8,8,8,8,8,8,8,8,8,8,8,
{32}8,7,6,5,,,,,8,,8,,8,,8,,8,1,2,3,,,,,8,,8,,8,,8,,8,7,6,5,,,,,8,1,2,3,,,,,8b,7,6,5,8b,1,2,3,8b,7,6,5,8b,1,2,3,
{1}C1f,
{8}3b,3,6,6,
{16}4b,5,4,5,6b/3b,,,,
{6}C1hf[64:1]/E7/E3/B3/B2/B6/B7,,
{6}7bh[12:1]/E2f/B2/B1/D2,7bh[12:1]/D6f/A5/A6,7bh[12:1]/D2f/A1/A2,7bh[12:1]/E6f/B6/B5/D6,7bh[12:1]/E2f/B2/B1/D2,7bh[12:1]/D6f/A5/A6,7bh[12:1]/D2f/A1/A2,7bh[12:1]/E6f/B6/B5/D6,8b/C1hf[64:1]/B3/B2/E3,,,,
{6}2bh[12:1]/E8f/B7/B8/D8,2bh[12:1]/D4f/A4/A3,2bh[12:1]/D8f/A7/A8,2bh[12:1]/E4f/B4/B3/D4,2bh[12:1]/E8f/B7/B8/D8,2bh[12:1]/D4f/A4/A3,1b/C1hf[64:1]/E7/B6/B7,
{24}3b,4,3,4,3,4,3,,,,,,
{6}C1hf[64:1]/E7/E3/B3/B2/B6/B7,,
{6}2bh[12:1]/E8f/B7/B8/D8,2bh[12:1]/D4f/A4/A3,2bh[12:1]/D8f/A7/A8,2bh[12:1]/E4f/B4/B3/D4,2bh[12:1]/E8f/B7/B8/D8,2bh[12:1]/D4f/A4/A3,2bh[12:1]/D8f/A7/A8,2bh[12:1]/E4f/B4/B3/D4,1b/C1hf[64:1]/E7/B6/B7,,,,
{6}7bh[12:1]/E2f/B2/B1/D2,7bh[12:1]/D6f/A5/A6,7bh[12:1]/D2f/A1/A2,7bh[12:1]/E6f/B6/B5/D6,7bh[12:1]/E2f/B2/B1/D2,7bh[12:1]/D6f/A5/A6,8b/C1hf[64:1]/B3/B2/E3,
{24}6b,5,6,5,6,5,6,,,,,,
{6}C1hf[64:1]/E7/E3/B3/B2/B6/B7,,
{6}7bh[12:1]/E2f/B2/B1/D2,7bh[12:1]/D6f/A5/A6,7bh[12:1]/D2f/A1/A2,7bh[12:1]/E6f/B6/B5/D6,7bh[12:1]/E2f/B2/B1/D2,7bh[12:1]/D6f/A5/A6,8b/C1hf[64:1]/B3/B2/E3,
{24}6b,5,6,5,6,5,6,,,,,,,,,,,,,,
{6}2bh[12:1]/E8f/B7/B8/D8,2bh[12:1]/D4f/A4/A3,2bh[12:1]/D8f/A7/A8,2bh[12:1]/E4f/B4/B3/D4,2bh[12:1]/E8f/B7/B8/D8,2bh[12:1]/D4f/A4/A3,1b/C1hf[64:1]/E7/B6/B7,
{24}3b,4,3,4,3,4,3,,,,,,,,,,,,,,
{6}7bh[12:1]/E2f/B2/B1/D2,7bh[12:1]/D6f/A5/A6,8b/C1hf[64:1]/B3/B2/E3,
{24}6b,5,6,5,6,5,6,,,,,,
{6}2bh[12:1]/E8f/B7/B8/D8,2bh[12:1]/D4f/A4/A3,1b/C1hf[64:1]/E7/B6/B7,
{24}3b,4,3,4,3,4,3,,,,,,
{24}6b,,7/5,,3b,,4/2,,7b,,8/6,,2b,,3/1,,6b,,7/5,,3b,,4/2,,,
{16}3b,4,2,6b,5,7,1b,8,2,7,
{16}1b>1[1:3],,,,,,,,,,,,,,,,,,,,,,,,,,,,,,,,,,,,,,,,,,,,,,,,,,,,,,,,,,,,,,,,
{8}1b/8b,,2,2h[4:1],,8,8h[4:1],,6,6h[4:1],,5,5,,6/4,,3h[4:1],,5,5h[4:1],,7,7h[4:1],,1,1h[4:1],,2,2,,2/1,,
{8}8h[4:1]/3b,,6,6h[4:1],,5,5h[4:1],,3,3h[4:1],,1,1,,8/2,,7h[4:1]/6h[4:1],,,,2h[4:1]/3h[4:1],,,,5/4,,8/1,,
{24}6/5,4,3,2,1,8,7,6,5,4,3,2,1b/5b,,,,,,
{8}8,8h[4:1],,6,6h[4:1],,5,5h[4:1],,7,7,,8/6,,
{16}3,7,3,7,3,7,3,7,2,8,2,8,3,7,3,7,2,8,2,8,1,1,1,1,1,,,,C1f/B7/B3,,,,
{16}8b-6[8:1],,,2,8,,2,,8b-5[8:1],,,2,8,,2,,8b-4[8:1],,,1,8,,1,,8b-3[8:1],,,1,8,,1,,
{16}4b/2b-4[8:1],,,6,2,,6,,2b-8[8:1],,,5,2,,5,,2b-5[8:1],,,6,2,,6,,2b-6[8:1],,,8,2,,8,,
{16}7b-5[8:1],,,8,7,,1,,2b-4[8:1],,,1,2,,8,,6b-8[8:1],,,5,6,,4,,3b-1[8:1],,,4,3,,5,,
{8}8/2,8/2,7/3,7/3,6/4,6/4,5/3,5/3,
{16}2,4,2,4,1,5,1,5,
{32}1,2,3,4,5,6,7,8,1,2,3,4,5,6,7,8,
{4}1b-5-7-2[4:6],,,,,,,,3-5-8-2[4:6],,,,,,,,3-8-5-2-7b[4:14],,,,,,,,3-6-1-4-7[4:6],,,,,,,,
{8}8-4[8:1],,3h[4:1],,5,5/3h[4:1],,5,2h[4:1]/4,,4,3/1h[4:1],,3,1-4[8:1]/3-6[8:1],,,,
{8}5h[4:1]/3,,3,6h[4:1]/4,,4,7h[4:1]/5,,5,8h[4:1]/6,,6,8-5[8:1]/6-3[8:1],,,,
{8}2h[16:1]/4h[16:1],2h[16:1]/4h[16:1],3h[16:1]/5h[16:1],3h[16:1]/5h[16:1],6h[16:1]/4h[16:1],6h[16:1]/4h[16:1],7h[16:1]/3h[16:1],7h[16:1]/3h[16:1],8h[16:1]/2h[16:1],8h[16:1]/2h[16:1],1h[16:1],1h[16:1],1h[16:1],1h[16:1],
{16}2b,8,2,8,2,8,3,7,3,7,3,7,4,6,4,6,4,6,4,6,5,5,5,5,5h[32:1],5h[32:1],5h[32:1],5h[32:1],5h[32:1],5h[32:1],5h[32:1],5h[32:1],5b,,,,,,7b/3b,,,,,,6b/4b,,,,
{16}2b,4,3,4,2h[8:1],,7b,5,6,5,7h[8:1],,5,,8/4,,
{16}3b,5,4,5,3h[8:1],,7b,5,6,5,8h[8:1],,2b,1,3,1,2h[8:1],,7b,4,6,5,7h[8:1],,2b,4,3,4,2h[8:1],,4,,
{32}6b/2b,,,,6b/2,3,4,5,,,,,5b,,,,5b/1,2,3,4,,,,,1b,8/2,7/3,6/4,5,,,,
{16}6b,5,6,5,6,,2b,4,3,4,2,,6/4,,6/4,,
{32}7b/3b,,,,3b/7,6,5,4,,,,,4b,,,,4b/8,7,6,5,,,,,8b,7/1,6/2,5/3,4,,,,
{16}3b,4,3,4,3,,7b,5,6,5,7,,5/3,,5/3,,
{32}6b/2b,,,,6b/2,3,4,5,,,,,5b,,,,5b/1,2,3,4,,,,,1b,8/2,7/3,6/4,5,,,,
{16}7b,5,6,5,7,,2b,4,3,4,2,,7/3,,6/4,,
{32}7b/3b,,,,3b/7,6,5,4,,,,,4b,,,,4b/8,7,6,5,,,,,8b,7/1,6/2,5/3,4,,,,
{16}2b,4,3,4,2,,7b,5,6,5,7,,6/2,,5/3,,
{32}6b/2b,,,,6b/2,3,4,5,,,,,5b,,,,5b/1,2,3,4,,,,,1b,8/2,7/3,6/4,5,,,,
{16}7b,5,6,5,7h[8:1],,2b,4,3,4,2,,7/3,,6/4,,
{32}7b/3b,,,,3b/7,6,5,4,,,,,4b,,,,4b/8,7,6,5,,,,,8b,7/1,6/2,5/3,4,,,,
{16}2b,4,3,4,2h[8:1],,7b,5,6,5,7,,6/2,,5/3,,
{32}6b/2b,,,,6b/2,3,4,5,,,,,5b,,,,5b/1,2,3,4,,,,,1b,8/2,7/3,6/4,5,,,,
{16}7b,5,6,5,8h[8:1],,2b,4,3,4,1,,7/3,,6/4,,
{32}7b/3b,,,,3b/7,6,5,4,,,,,4b,,,,4b/8,7,6,5,,,,,8b,7/1,6/2,5/3,4,,,,
{16}2b,4,3,4,1h[8:1],,7b,5,6,5,8h[8:1],,3b,5,4,5,2h[8:1],,6b,4,5,4,7h[8:1],,2b,6,2,6,2,,3b,3,5,5,4,4,6,6,C1f,,,,,,,,,,
{16}1b/5b,,,,7-4[8:1],,7,,2-5[8:1],,2,,8-4[8:1],,8,,1-5[8:1],,1,,7-3[8:1],,7,,1>4[8:1],,1,,5,6,7,8,
{16}1bh[4:1],,,,2-5[8:1],,2,,7-4[8:1],,7,,8-3[8:1],,8,,6>3[8:1],,6,,8,,8,1,2h[8:1],,8,7,6h[8:1],,4,3,2bh[4:1],,,,
{16}7-3[8:1],,7,,1>4[8:1],,1,,5,6,7,8,1b-5[8:1],,1,,3h[4:1],,,,
{24}7,6,5,4,3,2,1,8,7,6,5,4,
{8}2bh[4:1]/3bh[4:1],,,62bh[4:1]/5bh[4:1],,,2bh[4:1]/4b,,
{16}5b,3,4,3,6b,4,5,4,7b,5,6,5,8b,,,,
{16}2b,4,3,4,3,4,2b,4,3,4,3,4,,2,2,,7b,5,6,5,6,5,7b,5,6,5,6,5,,7,7,,
{16}1b,4,1,4,1,4,1,4,1,4,1,4,1,4,1,,8b,5,8,5,8,5,8,5,8,5,8,5,8,5,8,,
{16}4b,4,5,5,3,3,6,6,2,2,7,7,1,1,8,8,1b,8,1,8,1,8,1,8,
{32}1b,2,3,4,5,6,7,8,1b,2,3,4,5,6,7,8,1b/C1f,,,,,,,,,,,,,,,,,,,,,,,,,,,,,,,,
{12}7,5,6,2,4,3,6,5,7,3,4,2,6,4,5,3,5,4,6,4,5,3,5,4,6,7,8,3,2,1,7,6,5,2,3,4,
{16}7b,5,6,5,7h[8:1],,2b,4,3,4,2h[8:1],,6b,5,6,5,7,,4b,5,6,4,5,6,4,5,5,6,7b/4b,,,,
{16}3bw7b[8:1],,,,3b,C1f/B3/B7,,,
{24}1,5,1,5,1,5,,,,6,,,
{16}6h[16:3],,,8,6-8b[8:1],,1,2,3<6b[8:1],,1,2,3/6,7,8,,
{16}8h[8:1],,,,7h[8:1]/6h[8:1],,,,6/5,,
{24}8,4,8,4,8,4,,,,
{16}7-3b[8:1],,1,,7<4b[8:1]/3,,2,,7>4b[8:1],,,3,3h[8:1],,
{64}D5,A5,D6,A6,D7,A7,D8,A8,D1/A1/E1f,,,,,,,,,,,,,,,,
{16}8b/2b,7,2,6,
{32}2,3,4,5,6,5,4,3,2,,,,
{16}8,8,2b,,7,2,6,6,,2,5,4,5,,
{12}3b,3b,3b,1b,1b,1b,7b,7b,7b,5b,5b,5b,3b,3b,3b,2b/6b,2b/6b,2b/6b,2b/6b,2b/6b,2b/6b,
{12}7b-4-6[8:1]/3b-8-2b[8:1],7b/3b,7b/3b,7b/3b,,,
{16}A2f/D2/D3/A6f/D6/D7,,,,7b/1b-4-1[4:1],,,,1-6b[8:1],,6,,5,,4,,3-8[8:1],,6-2b[8:1],,3<6[8:1],,6-3b[8:1],,3w7[8:1],,,,,,,,A1f/D1/D2/A5f/D5/D6,,,,
{16}8b-5-8b[4:1]/2b,,,,8-3[8:1],,3,,4,,5,,6-1[8:1],,3-7b[8:1],,6>3b[8:1],,3-6b[8:1],,6w2[8:1],,,,,,,,
{16}8b/4b,,7,5,7,5,7,5,6,5,4,5,3,5,2,5,1b,5,8,4,7,3,6,2,5,1,5,1,,,6/2,,
{32}2,3,6,5,2,3,6,5,1,2,7,6,1,2,7,6,3,4,7,6,2,3,8,7,
{4}C1f,,,,,
{16}2-5[8:1],,8-2>4-6b[4:1],,2,,8,,,,7w3[8:1],,,,7,,,,,,1>4[8:1]/5<8[8:1],,,,5/1-5[8:1],,,,1,,,,
{16}1,8,1,8,2,1,3,8,4,7,5,6,4,5,3,4,2,5,2,5,1,6,1,6,8,7,8,7,8b,,,,
{16}7-4[8:1],,1-7<5-3b[4:1],,7,,1,,,,2w6[8:1],,,,2,,,,,,8/4,,,,5h[8:1]/3h[8:1],,,,4h[8:1]/2h[8:1],,,,
{16}2b,4,2,4,2,4,2,4,1b,5,1,5,1,5,1,5,
{32}1b,2,3,4,5,6,7,8,1,2,3,4,5,6,7,8,1b/5b,,,,,,,,,,,,,,,,
{16}1,5,1<3[4:1],5,1,,,,,,
{32}A1,D1,A8,D8,A7,D7,A6,D6,,,,,
{16}1,5,1b<3b[4:1],5,1,,,,,,
{32}A1,D1,A8,D8,A7,D7,A6,D6,,,,,
{8}2b-6[8:1]/4b,,2b/4b,,7b-3[8:1],,7b/5b<4[2:1],,,,,,,
{16}6,5,7,5,6,,
{24}4bh[8:5]/8b,7,6,5,,3,2,1,8,7,6,5,
{32},3,2,1,8,7,6,5,4,3,2,1,8,7,6,5,
{6}3b/4b,1b/2b,7b/8b,6b/5b,C1f/E3/E7/B2/B3/B6/B7,,
{24}6b,,7/5,,3b,,4/2,,7b,,8/6,,2b,,3/1,,6b,,7/5,,3b,,4/2,,
{24}6b,,7/5,,3b,,4/2,,7b,,8/6,,2b,,3/1,,6b,,7/5,,4b/6b,,,,
{24}7h[12:1]/2b,3,4,,7h[12:1]/2b,3,4,,6h[12:1]/1b,2,3,,6h[12:1]/1b,2,3,,7h[12:1]/2b,3,4,,7h[12:1]/2b,3,4,,
{24}2h[12:1]/7b,6,5,,2h[12:1]/7b,6,5,,3h[12:1]/8b,7,6,,3h[12:1]/8b,7,6,,5b/4b,,,,,,,,
{6}C1hf[64:1]/E7/E3/B3/B2/B6/B7,,
{6}7bh[12:1]/E2f/B2/B1/D2,7bh[12:1]/D6f/A5/A6,7bh[12:1]/D2f/A1/A2,7bh[12:1]/E6f/B6/B5/D6,7bh[12:1]/E2f/B2/B1/D2,7bh[12:1]/D6f/A5/A6,8b/C1hf[64:1]/B3/B2/E3,
{24}6b,5,6,5,6,5,6,,,,,,,,,,,,,,
{6}2bh[12:1]/E8f/B7/B8/D8,2bh[12:1]/D4f/A4/A3,2bh[12:1]/D8f/A7/A8,2bh[12:1]/E4f/B4/B3/D4,2bh[12:1]/E8f/B7/B8/D8,2bh[12:1]/D4f/A4/A3,1b/C1hf[64:1]/E7/B6/B7,
{24}3b,4,3,4,3,4,3,,,,,,,,,,,,,,
{6}7bh[12:1]/E2f/B2/B1/D2,7bh[12:1]/D6f/A5/A6,8b/C1hf[64:1]/B3/B2/E3,
{24}6b,5,6,5,6,5,6,,,,,,
{6}2bh[12:1]/E8f/B7/B8/D8,2bh[12:1]/D4f/A4/A3,1b/C1hf[64:1]/E7/B6/B7,
{24}3b,4,3,4,3,4,3,,,,,,
{24}6b,,7/5,,3b,,4/2,,7b,,8/6,,2b,,3/1,,6b,,7/5,,3b,,4/2,,,
{16}3b,4,2,6b,5,7,1b,8,2,7,
{1}8b-5-2-7-4-1-6-3[1:3]/1b-6-3-8-5-2-7-4b[1:3],,,,
{16}3b,7,3,7,3,7,3,7,3,7,3,7,3,7,3,7,2,8,2,8,2,8,2,8,3,7,3,7,3,7,3,7,2,8,2,8,3,7,3,7,2,8,2,8,
{24}1,1,1,1,1,1,1,,,,,,
{8}6h[8:1]/4h[8:1],,7bh[4:1]/3bh[4:1],,,,
{16}3bw7b[8:1],,,,3b,C1f/B3/B7,,,
{24}1,5,1,5,1,5,,,,6,,,
{16}6h[16:3],,,8,6-8b[8:1],,1,2,3<6b[8:1],,1,2,3/6,7,8,,
{16}8h[8:1],,,,7h[8:1]/6h[8:1],,,,6/5,,
{24}8,4,8,4,8,4,,,,
{16}7-3b[8:1],,1,,7<4b[8:1]/3,,2,,7>4b[8:1],,,3,3h[8:1],,
{64}D5,A5,D6,A6,D7,A7,D8,A8,
{6}D1/A1/E1f,
{24}7h[12:1]/2b,3,4,,6h[12:1]/1b,2,3,,6h[12:1]/1b,2,3,,7h[12:1]/2b,3,4,,7h[12:1]/2b,3,4,,
{24}2h[12:1]/7b,6,5,,2h[12:1]/7b,6,5,,3h[12:1]/8b,7,6,,3h[12:1]/8b,7,6,,2h[12:1]/7b,6,5,,2h[12:1]/7b,6,5,,
{16}4b,5,4,5,4,5,4,5,4,5,4,5,4b,,,,
{16}4b,6,4,6,4,6,4,6,3b,7,3,7,3,7,3,7,2b,8,2,8,2,8,2,8,
{24}1,1,1,1,1,1,B1/B2f/E3/A2/D2/E2,,,,,,
{16}5b,3,5,3,5,3,5,3,6b,2,6,2,6,2,6,2,7b,1,7,1,7,1,7,1,
{24}8,8,8,8,8,8,E7/B7f/B8/A7/D8/E8,,,,,,
{16}2h[16:1],6h[16:1],2h[16:1],6h[16:1],3h[16:1],7h[16:1],3h[16:1],7h[16:1],4h[16:1],8h[16:1],4h[16:1],8h[16:1],5h[16:1],1h[16:1],5h[16:1],1h[16:1],4h[16:1],8h[16:1],3h[16:1],7h[16:1],2h[16:1],6h[16:1],1h[16:1],5h[16:1],
{32}1b,8,7,6,5,4,3,2,1,8,7,6,5,4,3,2,1bs5-1[1:1],,,,,,,,,,,,,,,,,,,,,,,,,,,,,,,,,,,,,,,,,,,,,,,,,,,,,,,,,,,,,,,,
{16}2b,4,3,4,3,4,2b,5,4,5,4,5,3b,6,5,6,5,6,4b,,5b/4b,,6b/3b,,C1f/E3/E7,,,,,,,,
{16}1b>4[8:1]/5b,,1,,6-1[8:1],,6,,6/3-8[8:1],,33,,7/3,,7,,6/2>5[8:1],1,7,,2-6[8:1],,6,6,2,,8,8,7b/1b,,,,
{16}7-3[8:1],,2-6[8:1],,7,,2,,8-4[8:1],,1-5[8:1],,8,,1,,6,,6,,
{32}4,3,2,1,8,7,6,5,4-8[8:1]*-7[8:1],,,,,,,,4b,,,,,,,,
{16}7b/2b,,,,3/4,,4/5,,5/6,,6/7,,7/8,,8/1,,
{32}1b/2b,,,,8,7,6,5,3b,,,,8,7,6,5,2b,,,,8,7,6,5,1b,2,3,4,5,6,7,8,
{8}1-3[8:1],1-7[8:1],1-4[8:1],1-6[8:1],1-5[8:1],1,1,7,8/4,8/4,7/5,
{16}6,4,1h[16:1],,5,3,1h[16:1],7,2,,
{16}3,3,5,5,4,4,6,6,2,2,7,7,
{24}1,8,1,8,1,8,2,7,2,7,2,7,3,6,3,6,3,6,4,5,4,5,4,5,6b/3b,,,,,,
{24}7b/2b,8,1,2,3,4,5,6,7,8/3b,2,1,8,7,6,5,4,3,2/6b,7,8,1,2,3,4,5,6,7/2b,1,8,7,6,5,4b,3,2,
{32}1b,8,7,6,5b,4,3,2,1b,2/8,3/7,4/6,5b,6/4,7/3,8/2,1b,,,,,,,,
{24}2/7bh[1:0],3,4/7h[1:0],5,6,7,8/5bh[1:0],1,2/5h[1:0],3,4,5,6/3bh[1:0],7,8/3h[1:0],1,2,3,4/8bh[1:0],5,6/8h[1:0],7,8,1,2/7bh[1:0],3,4/7h[1:0],5,6,7,8/5bh[1:0],1,2/5h[1:0],3,4,5,6/3bh[1:0],7,8/3h[1:0],1,2,3,
{1}4/8bh[1:0],
{16}4b,5,3,6,4,5,2,7,3,6,2,7,C1f/E3/E7,,,,
{32}2b,3,4,5,6,,,,8/2,,,,8/2,3,4,5,6,,,,8/2,,,,1,2/8,3/7,4/6,5,,,,7/1,6,5,4,3,,,,7/1,,,,7/1,6,5,4,3,,,,7/1,,,,6b/2b,,,,6b/2b,,,,1/5,2,3,4,5,,,,8/4,7,6,5,8,7,6,5,4/8,,,,1,,,,1/5,2,3,4,5,,,,
{32}8/4,7,6,5,4,,,,1/5,2,3,4,1,2,3,4,5/1,,,,2/6,,,,7h[8:1]/3h[8:1],,,,,,,,
{32}1,2,3,4,5,6,7,8,1,2,3,4,1,2,3,4,8,7,6,5,4,3,2,1,8,7,6,5,8,7,6,5,2,3,4,5,2,3,4,5,6pp4[8:3],7,8,1,2,3,4,5,
{4},,C1f/E7/E3,,,,,,,,,,,,
{16}2b,8,1,8,1,8,1,8,
{12}2b,8,1,8,1,8,
{8}2b,8,1,8,1b,,,,
{32}6b/2b,,,,6b/2,3,4,5,,,,,6b,,,,6b/2,3,4,5,,,,,5b,,,,5b/1,2,3,4,,,,,1b,8/2,7/3,6/4,5,,,,,,,,
{16}2b,8,2b,8,2b,8,2b,,
{32}8h[8:1]/2b,3,4,5,6,,,,,,,,1h[8:1]/7b,6,5,4,3,,,,,,,,
{24}7b/8b,6/1,5/2,4h[8:3]/3,,,,,,,,,
{32}2,1,8,7,6,5,4,3,2,1,8,7,6,5/7,4/8,3/1,2w6[8:1],,,,,,,,
{16}2b<2[1:2]*>2[1:2],C1f,,,,,,,,,,,,,,,,,,,,,,,,,,,,,,,,,,,,,,,
{12}7,5,6,2,4,3,6,5,7,3,4,2,6,4,5,3,5,4,6,4,5,3,5,4,6b/3b,,,
{32}7b/3b,,,,3b/7,6,5,4,,,,,3b,,,,3b/7,6,5,4,,,,,4b,,,,4b/8,7,6,5,,,,,8b,7/1,6/2,5/3,
{16}4,,7b,1,7b,1,7b,,
(200){32}5/7h[1:0],8,1,2,3,4,5/7h[1:0],8,1,2,3,4,
(178.25){32}5/8h[1:0],7,6,5,4,3,2/8h[1:0],7,6,5,4,3,
(170){32}8h[1:0]/2,7,6,5,4,3,2,1,2h[1:0],8/3,7/4,5,(158.25)6,7,8,1/6,2/5,3,4,5,6,7/4,8/3,1,(131.15)2,3,4,5/2,6/1,7,8,1,
{48}2,3,2,3,2,3,2,3,2,3,2/4,3/5,4/6,5/7,6,5/7,6/8,7/1,
(125.65){1}8bh[1:3]/2bh[1:3],,,
{48},1,8,1,8,1,8,1,8,1,8,,C1f,
