&title=テトリス
&artist=柊マグネタイト
&first=-1.35
&des=心白-HW
&des_7=心白-HW
&lv_7=回
&inote_7=(170){1},{4}E3/B3/B2/B6/E7/B7/Ch[1:1],,,,5<1[4:1],
1>5[4:1],5<1[4:1],1>5[4:1],
5<1[4:1],1>5[4:1],5<1[4:1],1>5[4:1],
5<1[4:1],1>5[4:1],5<1[4:1],1>5[4:1],
5<1[4:1],1>5[4:1],5<1[4:1],1>5[4:1],
5<1[4:1],1>5[4:1],5<1[4:1],1>5[4:1],
5<1[4:1],1>5[4:1],5<1[4:1],1>5[4:1],
5<1[4:1],1>5[4:1],5<1[4:1],1>5[4:1],
5<1[4:1],1>5[4:1],{2}5<5[2:1],
{4}5b<1[4:1],1>5[4:1],5<1[4:1],1>5[4:1],
5<1[4:1],1>5[4:1],5<1[4:1],1>5[4:1],
5<1[4:1],1>5[4:1],5<1[4:1],1>5[4:1],
5<1[4:1],{8}1>5[4:1],1,5<1[4:1],5,{4}1>5[4:1],
5<1[4:1],1>5[4:1],5<1[4:1],1>5[4:1],
5<1[4:1],1>5[4:1],5<1[4:1],1>5[4:1],
5<1[4:1],1>5[4:1],5<1[4:1],1>5[4:1],
{8}5<1[4:1],A3,1>5[4:1],A7,5<1[4:1],A3,1>5[4:1],A7,
{4}5b<1[4:1],1>5[4:1],5<1[4:1],1>5b[4:1],
5b<1b[4:1],1b>5b[4:1],5b<1b[4:1],1b>5[4:1],
5b<1[4:1],1>5[4:1],5<1[4:1],1>5b[4:1],
5b<1b[4:1],1b>5b[4:1],5b<1b[4:1],1b>5[4:1],
{2}5<5[2:1],{4}5<1[4:1],1>5[4:1],
{8}5<1[4:1],A3,1>5[4:1],A7,5<1[4:1],A3,1>5[4:1],A7,
{2}5<5[2:1],{4}5<1[4:1],1>5[4:1],
{16}5bx<8[16:3],{8},{16}8x>3[16:3],{8},3x<5[8:1],{4}5<1[4:1],1>5[4:1],
{16}5x<8[16:3],{8},{16}8x>3[16:3],{8},3x<5[8:1],{4}5<1[4:1],1>5[4:1]*>5[4:1],
5<1[4:1]*<1[4:1],1>5[4:1]*>5[4:1],{2}5<8[16:3]*<8[16:3],
{4}2/3,4/5,{2}6/7,
{16}5b,6,7,8,1,2,3,4,5,6,7,8,1,2,3,4,
5,6,7,8,1,2,3,4,5,6,7,8,1,2,3,4,
5,6,7,8,1,2,3,4,5,6,7,8,1,2,3,4,
5,6,7,8,1,2,3,4,5,6,7,8,1,2,3,4,
{8},{16}7h,8,1,2,3,4,5,6,7,8,1,2,3,4,
5,6,7,8,1,2,3,4,5,6,7,8,1,2,3,4,
5,6,7,8,1,2,3,4,5,6,7,8,1,2,3,4,
5,6,7,8,1,2,3,4,5,6,7,8,1,2,3,4,
5b,6,7,8,1,2,3,4,5,6,7,8,1,2,3,4,
5,6,7,8,1,2,3,4,5,6,7,8,1,2,3,4,
5,6,7,8,1,2,3,4,5,6,7,8,1,2,3,4,
5,6,7,8,1,2,3,4,5,6,7,8,1,2,3,4,
{8},{16}7h,8,1,2,3,4,5,6,7,8,1,2,3,4,
5,6,7,8,1,2,3,4,5,6,7,8,1,2,3,4,
5,6,7,8,1,2,3,4,5,6,7,8,1,2,3,4,
5,6,7,8,1,2,3,4,5,6,7,8,1,2,3,4,
{32}5,4,3,2,1,8,7,6,5,4,3,2,1,8,7,6,{24}5,4,3,2,1,8,7,6,5,4,3,2,
{1}1/5b<5<5<5<5[1:2],
,{8}5<3[8:3],
{4},{8}3<1[8:3],{4},1>7[8:3],
{8},7>1[8:1],1>3[8:1],3<5[8:1],5<7[8:1],7>1[8:1],1>3[8:1],3<5[8:1],
{1}5b<5<5<5<5[1:2],
,{8}5<3[8:3],
{4},{8}3<1[8:3],{4},1>1[2:1],
,1>2>3<4<5[4:1],{2}5<6<7>8>1>5[2:1],
{4}5b<1[4:1],1>5[4:1],5<1[4:1],1>5b[4:1],
5b<1b[4:1],1b>5b[4:1],5b<1b[4:1],1b>5[4:1],
5b<1[4:1],1>5[4:1],5<1[4:1],1>5b[4:1],
5b<1b[4:1],1b>5b[4:1],5b<1b[4:1],1b>5[4:1],
{2}5<5[2:1],{4}5<1[4:1],1>5[4:1],
{8}5<1[4:1],{16}A3,A4,{8}1>5[4:1],A7,5<1[4:1],A3,1>5[4:1],A7,
{2}5<5[2:1],{4}5<1[4:1],1>5[4:1],
{16}5bx<8[16:3],{8},{16}8x>3[16:3],{8},3x<5[8:1],{4}5<1[4:1],1>5[4:1],
{16}5x<8[16:3],{8},{16}8x>3[16:3],{8},3x<5[8:1],{4}5<1[4:1],1>5[4:1]*>5[4:1],
5<1[4:1]*<1[4:1],1>5[4:1]*>5[4:1],{2}5<8[16:3]*<8[16:3],
{4}2/3,4/5,{2}6/7,
{16}5b,6,7,8,1,2,3,4,5,6,7,8,1,2,3,4,
5,6,7,8,1,2,3,4,5,6,7,8,1,2,3,4,
5,6,7,8,1,2,3,4,5,6,7,8,1,2,3,4,
5,6,7,8,1,2,3,4,5,6,7,8,1,2,3,4,
{8},{16}7h,8,1,2,3,4,5,6,7,8,1,2,3,4,
5,6,7,8,1,2,3,4,5,6,7,8,1,2,3,4,
5,6,7,8,1,2,3,4,5,6,7,8,1,2,3,4,
5,6,7,8,1,2,3,4,5,6,7,8,1,2,3,4,
5b,6,7,8,1,2,3,4,5,6,7,8,1,2,3,4,
5,6,7,8,1,2,3,4,5,6,7,8,1,2,3,4,
5,6,7,8,1,2,3,4,5,6,7,8,1,2,3,4,
5,6,7,8,1,2,3,4,5,6,7,8,1,2,3,4,
{8},{16}7h,8,1,2,3,4,5,6,7,8,1,2,3,4,
5,6,7,8,1,2,3,4,5,6,7,8,1,2,3,4,
5,6,7,8,1,2,3,4,5,6,7,8,1,2,3,4,
5,6,7,8,1,2,3,4,{32}B5,B6,B7,B8,B1,B2,B3,B4,E5,E6,E7,E8,E1,E2,E3,E4,
{16}5b,6,7,8,1,2,3,4,6,7,8,1,2,3,4,5,
7,8,1,2,3,4,5,6,8,1,2,3,4,5,6,7,
1,2,3,4,5,6,7,8,2,3,4,5,6,7,8,1,
3,4,5,6,7,8,1,2,4,5,6,7,8,1,2,3,
{8},{16}7h,8,1,2,3,4,6,7,8,1,2,3,4,5,
7,8,1,2,3,4,5,6,8,1,2,3,4,5,6,7,
1,2,3,4,5,6,7,8,2,3,4,5,6,7,8,1,
3,4,5,6,7,8,1,2,4,5,6,7,8,1,2,3,
5b,6,7,8,2b,3,4,5,7b,8,1,2,4b,5,6,7,
1b,2,3,4,6b,7,8,1,3b,4,5,6,8b,1,2,3,
5b,6,7,8,2b,3,4,5,7b,8,1,2,4b,5,6,7,
1b,2,3,4,6b,7,8,1,3b,4,5,6,8b,1,2,3,
{8}5b,{16}7h,8,2b,3,4,5,7b,8,1,2,4b,5,6,7,
1b,2,3,4,6b,7,8,1,3b,4,5,6,8b,1,2,3,
5b,6,7,8,2b,3,4,5,7b,8,1,2,4b,5,6,7,
1b,2,3,4,6b,7,8,1,{24}B1,B2,B3,B4,B5,B6,B7,B8,B1,B2,B3,B4,
{8}5b,{16}7xh,8,1,2,3x,4,1x,2,3,4,5x,6,7x,8,
5x,6,7,8,1,2,3x,4,1x,2,3,4,5x,6,7x,8,
5x,6,7,8,1x,2,3x,4,1x,2,3,4,5x,6,7,8,
{4}1b/2b,4b/5b,{2}7b/8b,
