&title=Funny shuffle
&artist=猫叉Master+
&first=0.018
&des=Tane
&freemsg=猫叉Master+
&wholebpm=
&des_1=Tane
&des_2=Tane
&des_3=Tane
&des_4=Tane
&des_5=Tane
&lv_4=10+
&lv_5=12
&inote_4=(115){1},,
{8}
4,,3,,
2,,3,,
5,,6,,
7,,6,,
4,,2,,
1,,3,,
5,,7,,
8,,6,,
3h[8:1],,7h[8:1],,
2h[8:1],,6h[8:1],,
3h[4:1],,7h[4:1],,
2h[4:1],,6h[4:1],,
2h[4:1],,8h[4:1],,
1h[4:1],,7h[8:1],,
3h[8:1]/4h[8:1],,5h[8:1]/6h[8:1],,
{24}4-8[8:1]/5h[8:1],,,,,,
,,,,,,
{8}
3,3,,4,
{24}5-1[8:1],,,,,,
6,,,6,,,{8}
6,6,,5,
{24}4-8[8:1],,,,,,
3,,,3,,,{8}
2,2,,4,
{24}5p1[8:1],,,,,,
7,,,7,,,{8}
5h[8:1]/6h[8:1],,3h[8:1]/4h[8:1],,
{24}45,,,,,,
45,,,,,,
{8}
1,34,8,56,
1,3h[4:1]/4h[8:1],,,
3,78,5,12,
3,1h[4:1]/6h[8:1],,,
1,35,8,64,
1,4h[4:1]/6h[8:1],,,
1,2,{24}3,,,4,,,
{8}5,6,{24}7,,,8,,,{8}
8,65,1,43,
8,6h[4:1]/5h[8:1],,,
6,21,4,87,
6,8h[4:1]/3h[8:1],,,
8,64,1,35,
8,5h[4:1]/3h[8:1],,,
{24}
12,,,3,,,
78,,,6,,,
5/6h[4:1],,,,,,
,,,,,,
{4}
3h[4:1]/4,,
4h[4:1]/5h[4:1],,
{8}
,,,,
7,6,5,4,
3,2h[12:1],4h[8:1],,
6,7h[12:1],5h[8:1],,
3,2h[12:1],4h[8:1],,
17,26,3b/5b,4,
6,7h[12:1],5h[8:1],,
3,2h[12:1],4h[8:1],,
6,7h[12:1],5h[8:1],,
82,73,64,5,
{24}
3,,2,4,,4,
3,,,
5,,,
6,,7,5,,5,
6,,,
4,,,
3,,2,4,,4,
3,,,
5,,,
17,,2,6,,3b,5b,,,4,,,
6,,7,5,,5,
6,,,
4,,,
3,,2,4,,4,
3,,,
5,,,
6,,7,5,,5,
6,,,
4,,,
82,,7,3,,6,4,,,5,,,
{8}
1,1h[4:1],,3h[4:1],
,5h[4:1],,7h[4:1],
1,1h[4:1],,7h[4:1],
,5h[4:1],,3h[4:1],
1,2h[4:1],,8h[4:1],
,6h[4:1],,4h[4:1],
8,1h[4:1],,7h[8:1],
,28,8,17,
{24}
3V51[16:2]/5,,,8,,,
6h[8:1],,,,,,
6V48[16:2]/4,,,1,,,
3h[8:1],,,,,,
35,,,8,,,
7,,,1,,,
7/1,,,28,,,
4h[8:1],,,,,,
6V48[16:2]/4,,,1,,,
3h[8:1],,,,,,
3V51[16:2]/5,,,8,,,
6h[8:1],,,,,,
64,,,1,,,
35,,,8,,,
46,,,8,,,
35,,,1,,,
{8}
1,3h[4:1],5,7h[4:1],
1,4,12,34,
5,7h[4:1],1,3h[4:1],
5,8,56,78,
1,3h[4:1],7,5h[4:1],
3,8,78,12,
8,7,{24}46,,,5,,,
{8}4,3,{24}24,,,3,,,{8}
1/4,2,7/1,8,
3/7,1,35,78,
5,6,35,4,
7/3,5,16,34,
1,2,71,6,
5/7,3,24,68,
{24}
8,,,65,,,
43,,,1,,,
71,,,8-6[8:1],,,
,,,,,,
2,,,1-3[8:1],,,
,,,,,,
7,,,8-6[8:1],,,
,,,,,,
2,,,1>8[4:3],,,
,,,,,,
,,,,,,
,,,,,,
&inote_5=(115){1},,
{8}
4,,3,,
2,,3,,
5,,6,,
7,,6,,
4h[8:1],,2h[8:1],,
1h[8:1],,3h[8:1],,
5h[8:1],,7h[8:1],,
8h[8:1],,6h[8:1],,
3h[8:1],4,7h[8:1],5,
2h[8:1],4,6h[8:1],5,
3h[4:1],4,7h[4:1],5,
2h[4:1],4,6h[4:1],5,
2h[4:1],4,8h[4:1],6,
1h[4:1],3,7h[8:1],5,
3h[8:1]/4h[8:1],,5h[8:1]/6h[8:1],,
{24}4-8[8:1]/5h[8:1],3,2,1,,,
,,,,,,
{8}
3,3h[4:1],4,4h[4:1],
{24}5-1[8:1],,,5h[24:2],,,
6,,,6,,,{8}
6,6h[4:1],5,5h[4:1],
{24}4-8[8:1],,,4h[24:2],,,
3,,,3,,,{8}
2,2h[4:1],4,4h[4:1],
{24}5p1[8:1],,,5h[24:2],,,
7,,,7,,,{8}
5h[8:1]/6h[8:1],,3h[8:1]/4h[8:1],,
{24}45,,2,4,,7,
5,,2,4,,8,
{8}
1,34,8,56,
1>6[8:1],3h[4:1]/4,,,
3,78,5,12,
3>6[8:1],1h[4:1]/6,,,
1,35,8,64,
1>6[8:1],4h[4:1]/6,,,
1,2,{24}3,,3,4,,,
{8}5,6,{24}7,,7,5,,,{8}
8,65,1,43,
8<3[8:1],6h[4:1]/5,,,
6,21,4,87,
6<3[8:1],8h[4:1]/3,,,
8,64,1,35,
8<3[8:1],5h[4:1]/3,,,
{24}
12,,,34,,,
56,,,78,,,
13,,2^8[12:1],1,,3h[24:3],
,,,,,8,
1,,7^1[12:1],8,,6h[8:1],
,,,,,1,
8,,2>7[8:4],1,,3h[24:19],
,,,,,,
{8}
,,,,
7,6,5,4,
3v8[8:1],2h[12:1],4h[8:1],,
6v1[8:1],7h[12:1],5h[8:1],,
3v8[8:1],2h[12:1],4h[8:1],,
17,26,3b/5b,4,
6v1[8:1],7h[12:1],5h[8:1],,
3v8[8:1],2h[12:1],4h[8:1],,
6v1[8:1],7h[12:1],5h[8:1],,
82,73,64,5,
{24}
3v8[8:1],,2,4,,4,
3,,,
5,,,
6v1[8:1],,7,5,,5,
6,,,
4,,,
3v8[8:1],,2,4,,4,
3,,,
5,,,
17,,2,6,,3b,5b,,,4,,,
6v1[8:1],,7,5,,5,
6,,,
4,,,
3v8[8:1],,2,4,,4,
3,,,
5,,,
6v1[8:1],,7,5,,5,
6,,,
4,,,
82,,7,3,,6,4,,,5,,,
{8}
1,1h[4:1],3,3h[4:1],
5,5h[4:1],7,7h[4:1],
1,1h[4:1],7,7h[4:1],
5,5h[4:1],3,3h[4:1],
1,2h[4:1],1,8h[4:1],
5,6h[4:1],5,4h[4:1],
8,1h[4:1],8,7h[8:1],
1,28,8,17,
{24}
3V51[16:2]/5,,2,8,,,
6h[8:1],,,,,,
6V48[16:2]/4,,7,1,,,
3h[8:1],,,,,,
35,,2,8,,1,
7,2,8,1,,,
7/1<5[16:2],,,28,,,
4h[8:1],,,,,,
6V48[16:2]/4,,7,1,,,
3h[8:1],,,,,,
3V51[16:2]/5,,2,8,,,
6h[8:1],,,,,,
64,,7,1,,2,
8,,8,1,,,
15,,6,4,,7,
3,,8,2,,8,
{8}
1,3h[4:1],5,7h[4:1],
1^6[8:1],4^1[8:1],,,
5,7h[4:1],1,3h[4:1],
5^2[8:1],8^5[8:1],,,
1,3h[4:1],7,5h[4:1],
3^6[8:1],8^3[8:1],,,
8,7,{24}46,,6,5,,,
{8}4,3,{24}24,,2,3,,,{8}
1v6[8:1]/4,2,7^4[8:1]/1,8,
3v8[8:1]/7,1^4[8:1],,,
5v2[8:1],6,3^8[8:1]/5,4,
7v4[8:1]/3,5^8[8:1],,,
1v4[8:1],2,7^2[8:1]/1,6,
5v8[8:1]/7,3^6[8:1],,,
{24}
8,,,65,,,
43,,2,1,,,
71,,7-5[12:1],8,,6h[24:3],
,,,,,8,
2,,2-4[12:1],1,,3h[24:3],
,,,,,1,
7,,7-5[12:1],8,,6h[24:3],
,,,,,8,
2,,2>7[8:8],1,,3h[24:28],
,,,,,,
,,,,,,
,,,,,,
,,,,,,
,,,,4,5,
,,,,,,
