&title=Daisuke(GAME SIZE)
&artist=Y&Co.
&first=0.05
&des=谱面-200号
&lv_5=12
&inote_5=(157){1},
{8}2h[4:1]/1,,4,,7/8,6,5/7,,3h[4:1]/4,,1,,5/7,6,7/8,,
6h[4:1]/5,,8,8h[4:1],,2,4,6,8-4[8:1],,2,2-5[8:1],,6,7,8,
3/1,2,3/1,4,{16}5,5,{8}4,3/5,6,8/7,6,5/7,8,{16}1,1,{8}8,1/2,
{16}3,,5,4,5,4,6,5,6,5,7,4,7,4,8,3,8,3,1>8[8:3],,,,,,,,,,,,
4b/7b,,,,
2,1,3,1,2h[8:1],,4,,6,5,7,5,6h[8:1],,8,,
2,1,2,1,3h[8:1],,5,,7,5,7,5,8,,1/2,,
3,4,2,4,3h[8:1],,4,,6,5,7,5,6h[8:1],,8,,
1,1,7,7,5/6,,8,8,2,2,3/4,,1,8,1,,
7,8,6,8,7h[8:1],,5,,3,4,2,4,3h[8:1],,1,,
7,8,7,8,6h[8:1],,4,,2,4,2,4,1,,8/7,,
6,5,7,5,6h[8:1],,5,,3,4,2,4,3h[8:1],,1,,
8,8,2,2,4/3,,1,1,7,7,6/5,,8,8,1b,,
{8}2/8,2,2/4,2,2/7,2,2/5,2,7/8,7,7/5,7,7/2,7,7/4,7,
8/6,{16}7,,3/1,,2,,7,5,,5,6,,7/8,,1-4[8:1]/6,,,,1/5<2[16:3],,,,3,,3h[4:1],,,,5,,
{8}6/4,6,6/8,6,6/3,6,6/1,6,3/4,3,3/1,3,3/6,3,3/8,3,
2/4,{16}1,,7/8,,6,,2,4,,4,3,,2/1,,7-2[8:1]/8,,,,7/3-6[8:1],,,,3/8,,8h[4:1],,,,7,,
{8}6-1[8:1],4,6/5,3,3-8[8:1],2,3/4,5,6>3[8:1],3<6[8:1],6<1[8:1],2,2h[8:3],,,3,
3-8[8:1],4,3/4,5,6-1[8:1],7,6/5,4,3/8,2,1/6,7,1b-5[8:1]/8b,,6,6,
7p4[8:3],{8},3,2,1-5[8:1],,1b,6,7p4[8:3],{16}{8},2,1,8>3[8:1],,8b,5,
6/4,7,5,6,3/5,3,4,2,{16}4,3,4,3,5,4,5,4,6,5,6,5,7,4,8,2,
{2}1b>8[8:3],,
{8}1-6[8:1]/8-3[8:1],,1/8,,
2-5[8:1],2,6,6<1[8:1],,6/2>5[8:1],,,
7-4[8:1],7,4,3,2-5[8:1]/5-1[8:1],,2/5,,
8/4,7/3,6/2,1-6[8:1]/5,,7,,8-4[8:1]/4,,2,2,1,
8>3[8:1]/4<7[8:1],,8/4,,4-7[8:1]/6,5,4/3,2-6[8:1],,2/7-3[8:1],,2/7,,8-5[2:1],1,2h[8:6],,,,,,
1-4[2:1],8,7h[8:6],,,,,,
3,3/1,2,1/7,7,2/8,3,1/7,6,4/5,5/4,{16}3,4,2,5,1,6,8,7,
{24}1,2,3,5,6,7,2,3,4,6,7,8,{2}1h[4:3],7h[4:1],
{16}7,8,6,8,7h[8:1],,5,,3,4,2,4,3h[8:1],,1,,
7,8,7,8,6h[8:1],,4,,2,4,2,4,1,,8/7,,
6,5,7,5,6h[8:1],,5,,3,4,2,4,3h[8:1],,1,,
8,8,2,2,4/3,,1,1,7,7,6/5,,8,1,8,,
2,1,3,1,2h[8:1],,4,,6,5,7,5,6h[8:1],,8,,
2,1,2,1,3h[8:1],,5,,7,5,7,5,8,,1/2,,
3,4,2,4,3h[8:1],,4,,6,5,7,5,6h[8:1],,8,,
1,1,7,7,5/6,,8,8,2,2,3/4,,1,1,8b,,
{1}2>1[4:3]/7h[4:7],,{8}1h[4:7]/6<5[4:3],,,,,,,,,,,,5-8[8:1],,5b,,
1<2[2:1],2,3,{16}4,4h[16:9],{4},,{8}8>7[2:1],7,6,{16}5,5h[16:9],{4},,
{8}8,8,7,1,2/8,3,1,2,{16}5,4,5,2,5,4,5,3,5,4,6,5,7,4,8,3,1b>8[8:3]*p8[8:3],,,,
{4},,,
{8}1-6[8:1]/8-3[8:1],,1/8,,
2-5[8:1],2,6,6<1[8:1],,6/2>5[8:1],,,,1-4[2:1],7,5h[8:6],,,,,,
8-5[2:1],2,4h[8:6],,,,,,
6,5/7,7,8/2,2,3/5,5,6/8,8,7/1,2/8,{16}3,1,4,8,5,7,6,6,
{32}8,1,2,3,4,5,6,7,8,1,2,3,4,5,6,7,{2}8h[4:3]/1h[4:3],,
{16}2,4,3,5,4,,4/5,,7,5,6,4,5,,3/4,,2,4,3,5,2,,8/1,,7,5,6,4,7,,8/1,,
2,4,1,5,8h[8:1],,6,,7,5,8,4,1h[8:1],,3,,2,2,4,4,3/5,,7,7,5,5,4/6,,1/8,2/7,3/6,,
{16}7,5,6,4,5,,5/4,,2,4,3,5,4,,6/5,,7,5,6,4,7,,1/8,,2,4,3,5,2,,1/8,,
7,5,8,4,1h[8:1],,3,,2,4,1,5,8h[8:1],,6,,7,7,5,5,6/4,,2,2,4,4,5/3,,4-8[8:1]/6-2[8:1],3/7,2/8,,4b/6b,,,,
