&title=ギターと孤独と蒼い惑星
&artist=Kessoku Band
&first=0.42
&des=Jitjinsu
&lv_5=14
&inote_5=(193)
{4}4x,4x,4x,4x/C,
{8}25,{16}3,4,{8}3,2v5[6:1]/8,,5v8[6:1],6,7h[4:1],,2-8-6[6:1],,4h[4:1],,5x,36,{16}1,8,1,,7,8,7,,6-1[6:1]/4,,
{8},1-7-5[6:1],2,3h[4:1],,4-7[6:1],,4/3qq5[4:1],,8x,8x,,46,{16}7,5,7,,{8}4p8[6:1],,8>4[6:1],7,6h[4:1],,5-3-8[4:1],,2h[4:1],,,{16}5,7,4,6,
{8}3x/5x,2,46,7,35,1,46,8,17,3,28,6,15,2,3bv4-2-5-3-7b[8:15]*v4-2-5-3[16:23]/7b,3b/7b,,,,,,,,,,,,,,,,,
{8}6h[4:1],,8>4[2:1],8,,4,5,6,7h[8:1],,4h[8:1]/5h[8:1],,6h[8:1],,4h[8:1]/5h[8:1],,3h[8:3],,,
4,B4/2h[8:3],,,3,/B3/1h[8:3],,,8,B8/2h[8:3],,,5-2-6[2:1],6h[1:1]/4,,,,,,5>2[4:1],,2^7[4:1],,7^4[4:1],,4^1[4:1],,1v6[4:1],,
{4}4-2[6:1],4-6[6:1],4/8-4[6:1],8^5[6:1],8p1[4:1],,{8}4,35,,{16}6,5,{8}4b-8[6:1]/7b,,7-4[6:1],7,1-6[6:1],1,7-4[6:1],7,
{4}3^8[4:1],8q5[4:1],6-1^8-4[8:3],6,{8}3h[8:3],,,1-7[8:1],1/2h[8:3],,,8-6[8:1],8/1h[8:3],,,7-5[8:1],7/8h[8:3],,,4pp8[8:5],4,,,,,,{4}5h[4:1],6h[4:1],7h[4:1],5h[4:1],4x^1[6:1],7x^4[6:1],2x^7[6:1],5x^2[6:1],8x^5v8[8:3]*^3v8[8:3],,,{8}1b/7b,2b/6b,3b/5b,,
{8}4h[8:3],,,B5,46,,,75,7h[8:3],,,B2,6/8,,,2,2h[1:1],,B1/B2/E2,,A4/D4/E4,,A6/B6/E6,,8h[8:3],,,1,B2/B7/E3/E7,,,
{8}34,3h[8:3]/4h[8:3],,,,D3/A2/D5/A5,,,65,6h[8:3]/5h[8:3],,,,D7/A7/D5/A4,,,8,8/Ch[2:3],,A2/B2,,A1/B1,,A8/B8,,7-3-7[2:1],,,,,,,5,5h[8:1]/6h[8:1],,6/5h[8:1],7,6/5h[8:1],8,6/5h[8:1],1,4h[8:1]/3h[8:1],,3/4h[8:1],2,3/4h[8:1],1,3/4h[8:1],2,2^4[4:1],,4^6[4:1],,6^8[4:1],,8^2[4:1],,5-1[6:1],,5-2[6:1],,5-8-4-7-3b[1:1],,5,,3h[2:1],,,,,,2-4-8-6[8:5],,4x,4x,5h[8:3],,,,4,35,31,
{16}2,4,2,4,1hb[8:1],,5,3,5,3,4bh[8:1],,2,8,1bh[8:1],,6,8,6,8,6,,1b/8b,,2,4,3,7,5,6/5hx[16:13],,,,,{4}8b,7b,6b,
{8}2-6[8:1]/6-1[8:1],1,2x/6x,,2-5[8:1]/6-2[8:1],1/5,2x/6x-8-4[4:1],,16,2,3,{16}6,5,{8}7,28,1-4[8:1],,8-4[8:1],,7-4[8:1],,6-2[8:1],,5w1[8:1],,5b/Cf,,,{16}5x-1[8:1],6,{8}5,8,8,3-8[8:1]/4-8[8:1],2,34,,4-8[8:1]/5-8[8:1],3,45,,2-6[8:1]/1-6[8:1],3,12,,5-1-3[4:1],5,8,7,6,
{16}3x/4x,,2,5,2,5,8bh[8:1],,7,5,6,4,5bh[8:1],,1,3,2bh[8:1],,4,8,5,1,6,2,7b,8,1,2,3,4,5,6,
{8}7v4[8:1]/3v8[8:1],8,7x/3x,,7-3[8:1]/3,6/2,3x/7xpp3[2:1],,1,2,3,4,5,{16}2,1,2,,38,,{8}56,8x-4[8:1]/3x-7[8:1],83,83,,5x-3[8:1]/6x-8[8:1],56,5-1[8:1]/6-2[8:1],,5b/6b,,,{16}1x,8x,7x,6x,51,48,37,26,
{8}1b/5b,15,26,26,37,48,37,48,8-4[8:1],8,7-3[8:1],7,6-2[8:1],6,5-1[8:1],5,8-4[8:1],8,1-6[8:1],1,8-3[8:1],8,1-5[8:1],1,6x-1[8:1],6x,6x/4x-8[8:1],4x,5x-2[8:1]/4,5x,3x<1[4:1]/5x,3x,3x,,4x,3x/5x,4x/6x,5x/7x,68,68,1b/5b,B1/B5/E2/E1/E5/E6,,,D8,A3f,,,
{8}18,{16}3,4,{8}2^5[6:1]/5,25,,6-4-1[6:1],7,7h[4:1],,8>4[6:1],,5h[4:1],,6,47,
{16}2,1,2,,8,1,{8}8,6-3[6:1]/3,,3-5-7[6:1],2,2h[4:1],,8-3-7[4:1],,5h[8:1],,
{16}5x,4x,3x,2x,1x,8b,6,4,5,,71,,4,2,5,3,6,,28,,3,5,1,,24,,6,4,8,,5^8[8:1]/7,,3,,15,,2,,
{16}3,1,3,1,2,1,2,1,2,8,2,8,1,8,1,8,1,7,1,7,8,7,8,7h[16:5],8b,,2b,,4b,,{8}6bqq1qq4b[4:7],,,,,,,,,,,,,,5,5,6bh[8:1],
{16},,5x,6x,5x,6x,5x,6x,5x,6x,5x,6x,5x,6x,5x,6x,5x,6x,5x,6x,5x,6x,5x,6x,{24}5x,6x,5x,6x,5x,6x,5x,6x,5x,6x,5x,6x,{16}5x,6x,5x,6x,5x,6x,5x,6x,{12}5,6,5,6,5,6h[48:169],,,5x,,,4x,,,3x,,,,{16}2x,,,,,1x,,,,,8h[16:29],
{16},,,,,,,,,,,,,,,,,,,,,,,,,,,,,15,24,3,,,,,,,,,,,,,,,,,,
