&title=私は雨
&artist=稲葉曇
&first=0.005
&des=綾ヘルシ
&lv_5=13
&inote_5=(144)
{8},,,,,,,,
{16},,A1,A2,A3,,A8,A7,A6,,D2,D3,D4,,D8,D7,D6,,E2,E3,E4,,E8,E7,E6,,5h[16:4]/4h[16:4],,,,,,5h[16:4]/4h[16:4],,,,,,63,,,,72,,,,24,,,,75,,63,,24,,3,,73,,7>2v4[16:6],,4,,7,,,,,,,,,,
{16}6h[16:2]/2h[16:2],,,,62,,73,,8,,73,,1,,6h[16:4]/2h[16:2],,,,2p4>1[16:8],,8,,2,,7,,6,,5,,,,5h[16:2]/1h[16:2],,,,51,,,,62,,1,,73,,8,,,,7q5<2[16:8]/1,,2,,7,,,,,,,,,,8h[16:2]/4h[16:2],,,,84,,,,64,,3,,62,,1,,82,,7-1-6-2-5-3[16:15],,1h[16:6],,7,,,,,,,,1h[16:6],,,,,,,,,,1x/5x,,,,
{16}24,,3,,4,,5,,6,,7x/5x,,7x/5x,,7xh[16:4]/5xh[16:4],,,,,,8<5[16:2]*>3[16:2],,,,8,,,,5,,42,,1,,62,,1,,7q5<8[16:8]/3,,4,,7,,2,,3,,4,,,,8h[16:2]/4h[16:2],,,,E8/B7/B6/E6/E4/B3/B2/E2/Cf,,,,1bx/5bx,,2x,,3,,42,,1,,7/5-1[16:2],,8,,5,,7,,7,,6,,5,,42,,1,,73,,8-4[16:2],,73,,8,,,,62,,1,,1-5[16:2],,6,,5/1,,,,7-5[16:2],,1,,7,,2>4q6[16:6],,,,2,,,,8,,7,,5,,82,,73,,1-5[16:2],,6,,15,,8x,7x,6x,,6x/2x,7x/3x,8x/4x,,7x/3x,6x/2x,5x/1x,,6x/2x,7x/3x,8x/4x,,E1/E5,E8/E4,E7/E3,,C,,82,,5,,71,,4,,8h[16:4]/2,,,,,,62,,2,,73,,,,8hbx[16:4]/4bp4>5[16:10]b,,,,4b,,,,,,,,,,,,,,,,,,,,
{16}54,,63,,54,,63,,72,,3,4,2,,1/5h[16:24],,,,E2,,,,E3,,,,E4,,,,E5,,,,E4,,,,E3,,,,6,5,7,,8/4h[16:24],,,,E8,,,,E7,,,,E6,,,,E5,,,,E6,,,,E7,,,,3,4,2,,1/5h[16:24],,,,E2,,,,E3,,,,E4,,,,E5,,,,E4,,,,E3,,,,6,5,7,,8-6[16:2]/4,,5,,8,,5,,5-1[16:2],,6,,5,,8h[16:4],,,,6h[16:4],,,,4h[16:4],,,,2h[16:2],,5-1[16:2],,4-2[16:2],,5,,4,,7-5[16:2],,8-4[16:2],,A7,,A8,,5x-1[16:2],,6x,,5/4x-8[16:2],,3x,,5x-1[16:2]/4,,6x,,5x/4x,,2-4[16:2],,8-6[16:2],,2,,8,,1,,73,,8,,62,,8h[16:2]/1h[16:2],,,,72,,8<5[16:2],,1>4[16:2],,8,,1,,8,,2h[16:2],,8-4[16:2],,1-3[16:2],,8,,1,,6-8[16:2],,5-1[16:2],,A6,,A5,,8-4[16:2],,7x,,8b/1-5[16:2],,2x,,8-4[16:2]/1b,,7x,,8b/1,,3-1[16:2],,5-7[16:2],,3,,5,,4,,62,,5,,73,,8,,62,,1,,7-4[16:2]/3-8[16:2],,2,,73,,,,4q5[16:4],,,,5x<4[16:6],,,,Cf,,,,5xh[16:4],,,,,,1,,,,8-6[16:2]/2,,4-2[16:2],,8-4[16:2],,4,,8,,1-3[16:2],,2,,1/5-7[16:2],,6,,5/1-5[16:2],,2,,1/7,,8,,7<1[16:4],,,,1b,,,,8bx-4[16:2],,,,4,,5,,6-8[16:2],,4-2[16:2],,6,,4,,5-1[16:2],,2-4[16:2],,5,,2,,8-4[16:2],,1-3[16:2],,8-6[16:2],,1-5[16:2],,8<5[16:2],,1>4[16:2],,8,,1,,7,,62,,7qq1[16:4],,1,,8x/7x,,2x,,3x,,4x,,1x/5x,,1x<6b[16:2]/5x>2b[16:2],,,,1b/5b,,,,
{16}Cf,,,,64,,1,,53,,8,,82,,7h[16:4]/3h[16:4],,,,,,73,,62,,1,,73,,8,,73,,4,,62,,1h[16:2],,8,,73,,4,,71,,5,,8-6[16:2]/2-4[16:2],,,,82,,,,
{24}15,26,37,8x/4x,5x,6x,7x,8x,1x,2x/6bx,,,
{16}4,,73,,8,,7/3h,,6,,
{24}2h[16:6]/6x,5x,4x,3x,1x,8x,7x,6xh[24:2],,,,,73,,,6-8[16:2]/2-4[16:2],,,,,,62,,,,,,84,,,
{16}84,,7x/3x,6x/2x,5x/1x,,6x/2x,7x/3x,8x/4x,,7x/3x,6x/2x,5xh[16:2]/1xh[16:2],,,,2h[16:4]/4h[16:4],,,,,,53,,62,,3,,2pp8[16:4],,,,2,,7<5[16:2],,,,7,,,,8-4[16:2],,7-5[16:2],,8,,7,,2-4[16:2],,1-5[16:2],,2,,1,,8-4[16:2],,7-5[16:2],,8,,7,,2-4[16:2],,1-5[16:2],,2,,1,,2,,8,,8,,7h[16:4]/3h[16:4],,,,,,73,,4,,6-1[16:2]/2-5[16:2],,,,62,,,,8<5[16:2]/4>1[16:2],,,,84,,
{16},,62,,54,,82,,54,,7<5[16:2]/1>3[16:2],,,,71,,,,8<6[16:2]/2>4[16:2],,,,82,,,,73,,8,,62,,1,,73,,8,,2,,2,,2h[16:2]/6h[16:2],,,,6/2-6[16:2],,,,1-5[16:2],,,,8-4[16:2],,,,8,,,,62,,1,,7/3,,8,,62,,7,,3,,3,,6h[16:2],,5h[16:2],,7,,8,,3,,3,,6h[16:2],,5h[16:2],,7,,8,,3,,3h[16:2],,4h[16:2],,2,,6,,6,,7-5[16:2]/3,,2,,7,,,,2-4[16:2]/6,,7,,2,,,,5,,82,,1,,8-6[16:2]/4,,3,,8,,2,,2,,1-3[16:2]/5,,6,,1,,,,73,,62,,62,,3,,8-6[16:2],,1-5[16:2],,8-4[16:2],,1-3[16:2],,8-6[16:2],,1-5[16:2],,8,,1>4[16:2],,,,1,,8,,,,B8/B4,,B6/B2,,,,7b-4b[16:2]/3b-8b[16:2],,6b/2b,,7b/3b,,,,,,,,,,
