&title=Cristalisia
&artist=onoken
&first=-0.05
&des=和成天下
&lv_5=13+
&des_5=和成天下
&inote_5=
(134){4},,,,,,2-6[8:1]*s6[8:1],
2>2[8:7],
,,,,,8<4[2:1],
{16},,2,3,{4}4p7[8:5]*>7[8:5],
,,,6p1[4:1],
1<6[4:1],6q4[4:1],4<4[8:9],C,
,,,,,2q5[2:1],
,5<5[2:3],
,,,Ch[4:3],
{16},,,,,,,,,,,,2,2h[8:3],,,1,
8-4[8:1],7,6,,8,,,{8}5,5/3,{16}7,7h[8:3],,,8,
1-5[8:1],2,3,,1,,,{8}4,4/6,{16}3,3h[8:3],,,5,
6-2[8:1],7,8,,6,,,{8}8,3/8,{16}6,6,,4-8[8:1],
3,2-6[8:1],1,4,,2,,,{8}7,7/5,{16}8,8h[8:1],,4,
7,3,6,2,,5<8[8:1],,,{8}5,3,{16}4,4h[8:1],,8,
3,7,2,6,,1>4[8:1],,,{8}1,7,{16}6,6h[8:1],,2,
5,3,6,4,,7<4[8:1],,,{8}7,1,{16}2,2,,6,
3,7,4,8,,5x,1,4,8,3,{8}7,{16}1/8h[16:3],2,3,4,
,,8/1h[16:3],7,6,5,,,2/7h[16:3],3,4,5,,,7/2h[16:3],6,
5,4,,,3/7,4,5,6/1,7,8,1,2,7/3h[16:3],6,5,4,
,,2/6h[16:3],3,4,5,,,1/4h[16:3],8,7,6,,5xh[4:1],1,2,
3,4,,,7/3,6,5,4/1,3,2,1,8,3/7h[16:3],4,5,6,
,2h[4:1],3,4,5,6,,8h[4:1],7,6,5,4,,1h[4:1],2,3,
4,5,,,8,1,2,3,7/4,8,1,2,6x,7,8,1h[16:5],
,4,5,6,7,8h[16:5],,5,4,3,2,1h[16:7],,7,6,5,
4,3h[16:1],,,8/3,7,6,5,4/1,3,2,1,{4}8p2[8:7]/7<2[8:7],
,,,,,1>6[2:1],
{16},,8,7,{4}6p2[2:1]*<2[2:1],
,,,1p4[4:1],
4>1[4:1],1q6[4:1],6<4[8:5],C,
,,,7V53[4:1],
3V57[4:1],7-4[8:1],B3,{16}2,2,2,1/2,
,,6,6,6,5/6,,,3,3,3,4/3,,,7,7,
7,7/8,,,2,1,3,8,2,1,5,6,4,7,4,7>4[16:15],
,,E7,B6,B5,B4,,,B7,E7,B6,B5,,,E8,B7,
B6,B5,,,E1,E8,E7,E6,E5,E4,E3,E2,3x,8x,3x,8<3[16:15],
,,B1,B2,E3,B3,,,E1,B1,B2,B3,,,E8,B8,
B1,B2,,,E7,E8,E1,E2,E3,E4,E5,E6,7x,6x,7x,6x,
,,3,4,3,4,,,6,5,6,5,,,2,3,
2,3,,,8,1,7,2,6,3,5,4,6x,5,4,3,
2,1,8,7,2x,3,4,5,6,7,8,1,5x,4,3,2,
1,8,7,6,3x,4,5,6,7,8,1,2,7x,6,5,4,
3,2,1,8,5x,6,7,8,1,2,3,4,8x,1,2,3,
4,5,{32}6x/2x,7x/3x,8x/4x,1x/5x,{4}6x/2bw6[4:7],,,,,,,,,8b/4b,
{8}2/6,2,
{16}7,7-4[8:1],,3,,7/3,,,{8}2,2/5,{16}8,7v4[8:1],8,6>1[4:1],
,7x,,6x,,,,,{8}3,3/8,{16}2V48[16:3],,,4,
,,{8}7,{16}7V51[16:3],,,5,,,{8}2,{16}3,3,6,6,
,2/7,,1b-5[8:1]/8b-4[8:1],,6b/3b,,1b/8b,,,,,{8}7/3,7,
{16}2,2-6[8:1],,5,,2/5,,,{8}7,7/4,{16}1,2v5[8:1],1,3<8[16:3],
,2x,,3x,,,,,{8}5,1/5,{16}6V84[16:3],,,8,
,,{8}3V15[16:3],{16},1,,,{8}7,7/4,{16}6,6,3,3,
,2/7,,1bs5[8:1]/8bz4[8:1],,3b/6b,,8b/1b,,,,,1-5[8:1],5,3,7,
{4}1b,{16}4,6,4,6,4,7,4,7,4,8,4,8,
3,8,3,8,2,8,2,8,1,8,1,8,2,7,3,6,
4,5,2,1,3,8,4,7,5,6,8,7,1,6,2,5,
3,4,,,5,6,8,7,5,6,1,8,4,5,4,B6/E6,
,,7,8,7,E1/B1,,,3,4,3,E5/B5,,,8,1,
8,E2/B2,,,3,4,2,1,3,4,1,8,5,6,5,B6/E7,
,,7,8,7,E1/B8,,,3,4,3,B4/E5,,,1,2,
1,B2/E3,7,7,4,4,6,6,5,5,7,7x>2[16:1],{8}3,7/3,
{16}4,4-8[8:1],,6,,6/4,,,{8}5,1h[16:5],{16}4,5v2[8:1],6,7>4[16:3],
,5x,,7x,,,,,,,{8}3<6[8:1],7,3/7,
{16}8,8-4[8:1],,3,,8/3,,,{8}2,6/2,{16}1/5,2/6,3/7,4/8,
,2/6,,5bv7[8:1]/1bv3[8:1],,3b/7b,,1b/5b,,,,,{8}6,6/4,
{16}2,2-6[8:1],,5,,5/2,,,{8}1,5h[16:5],{16}8,1v6[8:1],2,3>5[4:1],
,1x,,3x,,,,,,,{8}3h[8:1],{16}7-4[16:1],7,7,7b,
,,2-5[16:1],2,2,2b,,,{8}7,3/7,{16}4/8,3/7,2/6,1/5,
,3/7,,4bv2[8:1]/8bv6[8:1],,6b/2b,,4b/8b,,,{8}7/3,{16}8x-5[16:1]/4x-1[16:1],8/4,8/4,8b/4b,
,,6x-1[16:1]/2x-5[16:1],6/2,6/2,6b/2b,,,{8}4x/8x,7/3,{16}2/6,3/7,4/8,5/1,
,3/7,,2bv4[8:1]/8bv6[8:1],,4b/6b,{32},,2b<5[16:37]/8b>5[16:37],Cf,
E
