&title=PhilosophyZ
&artist=Rewrite
&first=0.12
&des=幾星霜の空
&lv_5=13+
&inote_1=(160)
{1},,,,
{4},,
||ww
{16}4,3,2,1,5,6,7,8,
{8}2h[8:2],,5,4/6h[8:2],,1,2,3h[8:2]/8,,7,6,4/5h[8:2],,
{8}2,5<3[8:3],4,7h[8:2],,,5,6,7pp4[8:3],8,1,,,,
{8}2,3,4,5w1[8:2],6,,,,,
{8}57,46,35,24,
||Intro1
{16}1b-5[8:1],,,4,,,7^4[8:1],,
{8},3,2,1/4-8[8:1],,2,2,{16}7,7,{8}3,4,25,,
{16}7h[16:3],,,6h[16:3],,,5^8[8:1],,
{8},2,3,1/4^7[8:1],,1^4[8:1],,{8}7,8,1,26,,
{16}4pp2[8:4],,,6,,,8h[8:3],,,,,,,,
{8}3/4-8[8:1],,2,2,{16}7,6,{8}5,1,2/8h[8:2],,
{8}5qq3[8:1],,1,1^6[8:1],,4,3,5/2,,
{8}8,8,{16}2,3,{8}4-1[8:1]*-7[8:1],5,4,,
||repeat
{16}1b-5[8:1],,,4,,,7^4[8:1],,
{8},3,2,1/4-8[8:1],,2,2,{16}7,7,{8}3,4,25,,
{16}7h[16:3],,,6h[16:3],,,5^8[8:1],,
{8},2,3,1/4^7[8:1],,1^4[8:1],,{8}7,8,1,26,,
{16}4pp2[8:4],,,6,,,8h[8:3],,,,,,,,
{8}3/4-8[8:1],,2,2,{16}7,6,{8}5,1,2/8h[8:2],,
{8}5qq3[8:1],,1,1^6[8:1],,4,3,5/2,,
{8}8,8,{16}2,3,{8}4-1[8:1]*-7[8:1],5,4,
&inote_5=(160)
{1},,,,
{4},,
||Intro1-1
{16}4,3,2,1,5,6,7,8,
{8}2h[8:2],,5,4/6h[8:2],,1,2,3h[8:2]/8,,7,6,4/5h[8:2],,
{8}2,5<3[8:3],4,7h[8:2],,,5,6,7pp4[8:3],8,1,,,,
{8}2,3,4,5w1[8:2],6,,,,,
{8}57,46,35,24,
||Intro1-2
{16}1b-5[8:1],,,4,,,7^4[8:1],,
{8},3,2,1/4-8[8:1],,2,2,{16}7,7,{8}3,4,25,,
{16}7h[16:3],,,6h[16:3],,,5^8[8:1],,
{8},2,3,1/4^7[8:1],,1^4[8:1],,{8}7,8,1,26,,
{16}4pp2[8:3],,,6,,,8,,8h[8:2],,,,,,
{8}3/4-8[8:1],,2,2,{16}7,6,{8}5,1,2/8h[8:2],,
{8}5qq3[8:1],,1,1^6[8:1],,4,3,5/2,,
{8}8,8,{16}2,3,{8}4-1[8:1]*-7[8:1],5,4,,
||Intro1-2
r
{16}8b-4[8:1],,,5,,,2^5[8:1],,
{8},6,7,8/5-1[8:1],,7,7,{16}2,2,{8}6,5,74,,
{16}2h[16:3],,,3h[16:3],,,4^1[8:1],,
{8},7,6,8/5^2[8:1],,8^5[8:1],,{8}2,1,8,73,,
{16}5qq7[8:3],,,3,,,1,,1h[8:2],,,,,,
{8}6/5-1[8:1],,7,7,{16}2,3,{8}4,8qq3[8:3],73,8b/1h[8:5],,,,
{8},4,5qq5[8:3],,56,,6,7,8,1,2,3b,,
||Verse1-1
{8}6,6,6-4[8:1],,7h[8:8],,3,3,,,1,,8<5[8:2],81,,,
{8}3,3,3-5[8:1],,2h[8:8],,6,6,,,8,,1pp3[8:2],18,,,
{8}5,5,5-3[8:1],,6h[8:8],,2,2,,,8,,5q6[8:3],45,,,
{8}1,1,1-5[8:1],,1/2h[8:2],,6,48,,46,3/5,,
{16}4w8[8:1],,,,4,,,,
{8}3,3,3-6[8:1],,2h[8:8],,7,7,,,1,,3>7[8:2],43,,,
{8}6,6,6-3[8:1],,7h[8:8],,2,2,,,8,,6pp7[8:2],56,,,
{8}4,4,4-7[8:1],,3h[8:8],,8,8,,,2,,4p2[8:3],54,,,
{8}8,8,8-4[8:1],,8/7h[8:2],,3,51,,65,8h[8:3]/4,,
{16}5,4,3,2,7,6,5,4,
{8}1p5[8:1],,12,3,4V25[8:2],,46,8h[8:4],,4,3,2<6[16:3],,
{8}3,3qq4[8:3],,
{16}8h[16:2],,,7h[16:2],,,6,,4-8[8:1],,,,
{8}34,2h[8:2],,7<1[8:3],,4h[8:3],,,,,
{8}5p1[8:1],,56,7,8V61[8:2],,82,4h[8:4],,8,7,6>2[16:3],,7,7,,
{16}2,3,4,5,8,7,6,5,2,1,8,7,6,5,84,,
{8},3,42,5,62,7,81,,
{16}57,,46,,35,,1p5[8:1],1,,,2<3[16:5],,,,3,,,,1b,,1b,,,,
{4}4-1[8:1]/5-8[8:1],45,
{8}8b-4[8:1],3-8[8:1],8>6[8:2],3,,
{8}7-2[8:1],8,7/5^8[8:1],,3-6[8:1]/5,,1<3[8:2]/3,,18,,,
{8}2-5[8:1],7-2[8:1],2<4[8:2],7,,
{8}3,2,1q5[8:1],,61,7,8p4[8:1],4^7[8:1],3,2,,
{16}1b,2,3,4,7,6,5,4,
{24}2b,1,8,7,6,5,4,3,2,1b/5b,,,
{8},7-3[8:1],68,7,1-6[8:1]*-4[8:1],,1,,
{8}2-5[8:1],5-1[8:1],2,7-4[8:1],,7/8>7[8:3],1,8b/2h[8:3],,,,,
{4}4-1[8:1]/5-8[8:1],45,
{8}8b^5[8:1],3^8[8:1],8V24[8:2],3,,
{8}5-1[8:1],6,5/8v3[8:1],7,8/5-2[8:1],6,5/8<3[8:2],7,8/6h[8:3],,,
{8}2^5[8:1],7^2[8:1],2V84[8:2],7,,
{8}5b,3b,1b-5[8:1],,4b,6bp2[8:1],8b-4[8:1],,,1,1,
{16}8b,7,6,5,2,3,4,5,
{24}7b,8,1,2,3,4,5,6,7,8b/4b,,,,,,
{8}2-6[8:1],31,2,8-3[8:1]*-5[8:1],,8,,
{16}2b/6b,,3,4,3,,6,4,7,2,8<2[8:4],1,6,3,8b,,
{8},2<5[8:3],1pp8[8:3],,,,,,
{16}1b-5[8:1],,,4,,,7^4[8:1],,
{8},3,2,1/4-8[8:1],,2,2,{16}7,7,{8}1,3,46,8,
{16}7h[16:3],,,6h[16:3],,,5^8[8:1],,
{8},2,3,1/4^7[8:1],,1^4[8:1],,{8}7,8,1,26,,
{16}4pp2[8:3],,,6,,,8,,8h[8:2],,,,,,
{8}3/4-8[8:1],,2,2,{16}7,6,{8}5,1pp6[8:3],26,1b/8h[8:5],,,,
{8},5,4pp3[8:3],,43,,3,2,1,{12}4,4,2,6,6,4,
{8}8bV62[8:2],,1,3h[8:2],,8,5b/7b,4b/2bV84[8:2],,7,6,5h[8:2],,
{16}2,,18,18,2b-5[8:1]/7b-4[8:1],,
{8},,,36,27,18,1b/3b,5b<3[8:2]/7b,,,,{16}7,8,1,2,3,4,
{16}51,62,7bs3[8:31]/3bs7[8:31],
