&title=[狂]零號車輛
&artist=seatrus
&first=0
&des=AMH
&lv_7=14+?
&des_7=AMH
&inote_7=
(240){1},,5h[1:1],
{8}2,5,3,4,2,5,3,4,
{2}2h[2:1],8,
{8}7,4,6,5,7,4,6,5,
{2}7h[2:1],1,
{8}2,1,3,8,2,1,3,8,
{2}4h[2:1],6,
{8}7,8,6,1,7,8,6,1,
{4}7^5[8:1],1,{16}2b,3,{8}4,,,
{8}4,3,2,1,8,7,6,5,
{2}4h[2:1],8,
{8}5,6,7,8,1,2,3,4,
{2}5h[2:1],1,
{8}4,5,3,6,2,7,1,8,
{1}1h[2:1],
{8}8,1,7,2,6,3,5,
{1}4w8[4:1]*w8[4:1],
{8},8b/2b,8b/2b,8b/2b,8b/2b,,,3b/7b,3b/7b,,4b/6b,,3b/5b,2b/6b,2b/6b,{8}3b/7b,3b/7b,
{8}4/8,3/7,2/6,1/5,3/7,2/6,1/5,8/4,
1/5,1/5,2/6,2/6,3/7,3/7,4/8,4/8,
4b/8b,{16}7,5,6,5,{8}7,5b/1b,{16}2,4,3,4,{8}2,
1b/5b,{16}7,8,6,8,{8}7,8b/4b,{16}2,1,3,1,{8}2,
{16}6,5,6,5,7,4,7,4,8,3,8,3,1,2,1,2,
{1}1b-5[4:1]*-5[4:1],
{4}3b,{24}3/7h[8:1],4,{6}5,{24}3/7h[8:1],4,{12}5,{24},,3/7h[8:1],4,{6}5,
{24}3/8h[8:1],4,{12}5,{24},,3/8h[8:1],4,{6}5,{24}3/8h[8:1],4,{12}5,{24},,3/1h[4:1],4,{6}5,
{4}2b,{24}6/2h[8:1],5,{6}4,{24}6/1h[8:1],5,{12}4,{24},,6/2h[8:1],5,{6}4,
{24}6/1h[8:1],5,{12}4,{24},,6/8h[8:1],5,{6}4,{24}6/1h[8:1],5,{12}4,{24},,6/2h[4:1],5,{6}4,
{8}7b,{16}5,6,4,5,{8}3,2b,{16}4,3,5,4,{8}6,
7h[8:1],{16}8,7,1,8,2,8,3,8,{8}4,4,6/2,
{16}4b/8h[16:3],,,4,7b/3h[16:3],,,7,2b/6h[16:3],,,2,5b/1h[16:3],,,5,
1,5,2,6,3,7,4,8,5,6,5,6,{4}2b,1,
{24}5h[8:1]/1,2,3,,,,5h[8:1]/1,2,3,,,,5h[8:1]/1,2,3,,,,6h[8:1]/1,2,3,,,,5h[8:1]/1,2,3,,,,6h[8:1]/1,2,3,,,,5b/1b,2b,3b,,,,{8}8,,
{24}4h[8:1]/8,7,6,,,,4h[8:1]/8,7,6,,,,4h[8:1]/8,7,6,,,,3h[8:1]/8,7,6,,,,4h[8:1]/8,7,6,,,,3h[8:1]/8,7,6,,,,4b/8b,7b,6b,,,,
{8}1,1,2/4,2/4,4/5,4/5,7/5,7/5,8b,8b,7b/5b,7b/5b,5b/4b,5b/4b,2b/4b,2b/4b,
{16}2,4,2,4,3,5,3,5,4,6,4,6,5,7,5,7,5,8,5,8,4,8,4,8,{32}4,3,2,1,8,7,6,5,4,3,2,1,8,7,6,5,
{16}8h[8:1],,4,5,3,4,{8}2,2-5[8:1]/1,3,2/1,8,
{16}7h[8:1],,5,6,4,5,{8}3,3-8[8:1]/4,2,3/4,5,
{16}7h[8:1],,5,6,4,5,{8}3,{16}2h[4:1],,4,3,5,4,{8}6,
{16}7,5,6,5,8,5,6,5,1,5,6,5,{4}8b,
{16}8/1h[8:1],,4,3,5,3,6,3,{8}7-3[8:1],6,7/8,1,
{16}2h[8:1],,4,3,5,3,6,3,{8}7-3[8:1],6,7/8,1,1b,1b-5[4:7]*-5[4:7],,{24}2,3,4,,,,8,7,6,,,,2b,3b,4b,,,,8b,7b,6b,,,,2b,3b,4b,,,,{8}1b-5[8:1],,,,,
{8}3,3,4/5,6,6,3/5,2,2,3/4,5,6,5/6,{16}6,5,{8}6,5/6,7/4,8/3,1/2,4/3,2/5,1/6,8/7,{16}8,1,2,3,8,7,6,5,8-4[8:1],1,2,3,8b,,,
2/5,{16}3,4,3,4,3,4,3,4,{8}3,2,1,8,7/4,{16}6,5,6,5,6,5,6,5,{8}6,7,8,1,1,2/8,2/8,3/7,3/7,4/6,4/6,
{16}5,4,5,4,6,3,6,3,7,2,7,2,8-4[8:1],1,8,1,{1}8bqq4[1:2]*qq4[1:2],2,3qq7[1:2],6h[8:1],5pp1[1:2]*pp1[1:2],4,2h[2:3],1h[2:1],
{8}1h[4:1]/2h[4:1],,,8h[4:1]/1h[4:1],,,7h[2:1]/8,,,,6,,5,,4,,
3h[4:1]/4h[4:1],,,2h[4:1]/3h[4:1],,,2h[2:1]/1,,,,8,,7,,6,,
5h[4:1]/6h[4:1],,,4h[4:1]/5h[4:1],,,3h[2:1]/4,,,,2,,1,,8,,
{4}7h[1:1]/8>6[1:1],,,,,,8b,,
{8}3,4,5,6,7,6,5,4,{1}3^8[4:1],
{8}6,5,4,3,2,3,4,5,{1}6^1[4:1],
{8}2,4,3,5,4,6,5,7,{1}5-8[4:1]*p1[4:1],
{8}7,5,6,4,5,3,4,2,{1}3-6[4:1]*p7[4:1],
{8}2,1,3,8,4,7,5,6,{1}5-2[4:1]*q1[4:1],
{8}6,5,7,4,8,3,1,2,{1}1-4[4:1]*p5[4:1],
{8}3,4,2,5,1,6,8,7,{1}8-5[4:1]*q4[4:1],
{8}1,6,5,6,2,5,4,5,{1}3b-6[4:1]*p7[4:1],
{8}6b/8b,6b/8b,6b/8b,6b/8b,,,1b/5b,1b/5b,,2b/4b,,3b/4,3b/5,3b/6,3b/7,
{4}3b-1[8:1]/8-4[8:1],3/8-6[8:1],8-2[8:1]/3-7[8:1],8-4[8:1]/3,3^1[8:1]/8^6[8:1],3/8-4[8:1],8/5w1[8:1]*w1[8:1],{8}5b,,,3/7,3/7,8/4,8/4,3/7,3/7,2/6,2/6,1/5,1/5,4/8,4/8,1/5,1/5,6/2,6/2,
{32}3b,4,5,6,7,8,1,2,3,4,5,6,7,8,1,2,3,4,5,6,7,8,1,2,3,4,5,6,7,8,1,2,{1}3h[2:1]/7h[1:1],
{16}2,7,2,7,2,7,2,7,2,7,2,7,2,7,2,7,3,6,3,6,3,6,3,6,3,6,3,6,3,6,3,6,
4,5,4,5,2,4,3,7,5,6,1,3,2,8,6,7,
{2}1-5[8:1],{4}1w5[8:1]*w5[8:1],1b,
3v8[8:1]/7-4[8:1],3/7,{8}1h[16:1]/5h[16:1],2h[16:1]/6h[16:1],3h[16:1]/7h[16:1],4h[16:1]/8h[16:1],
{16}1/5,4/8,3/7,2/6,1,8,7,6,2-6[8:1]/6h,5h/1h,4h/8h,3h/7h,{4}6bw2[8:1],,8b/4b,
{16}7,5,7,5,6,4,6,4,5,3,5,3,4-8[8:1],2,4,2,{2}4bw8[8:1],
{4}2v5[8:1]/6-1[8:1],2/6,{16}4/8,3/7,2/6,1/5,8,7,6,5,4/8,3/7,2/6,1/5,{4}8v3[8:1]/4-7[8:1],4/8,2b/6b,
{16}1h[8:1]/5h[8:1],,,2h[8:1]/6h[8:1],,,3h[8:1]/7h[8:1],,,4-2[8:1]/8-6[8:1],,,,,,,
1b/5h[8:1],,,2h[8:1]/6b,,,3b/7h[8:1],,,4^1[8:1]/8b^5[8:1],,,4b/8,,,,,
{4}8-4[8:1]/4-8[8:1],4/8w4[8:1],,{24}7b-3[8:1]/1b,6/2,3/5,4,,,{4}7-5[8:1]/2-5[8:1],7-1[8:1]/2-4[8:1],2/7-4[8:1],7/2-5[8:1],6-1[8:1]/2,6/3-8[8:1],7^4[8:1],{32}1b-5[8:1]/7b,2,3,,{8},{4}1/8-6[8:1],8/2>4[8:1],2/8^6[8:1],8/5-1[8:1],1w5[8:1],,{24}2-6[8:1]/8,3/7,6/4,5,,,
{4}2/7-1[8:1],7/3-5[8:1],3/6-2[8:1],1-5[8:1]/6,1/8-6[8:1],2-4[8:1]/8,2^8[8:1]/8-4[8:1],2-6[8:1],7-4[8:1]/2,{1}7/3w7[4:1],1b>8[2:1]/5h[4:7],
{32}1,2,3,4,,6,7,8,1,2,3,4,,6,7,8,1,2,3,4,,6,7,8,{4}1,
{16}2/5,,3,4,3,,{8}2/5,1b-5[8:1],8b,7b,6b,
{16}7/4,,6,5,6,,{8}7/4,8b-4[8:1],1b,2b,3b,
2-6[8:1],2,8-3[8:1],8,1-5[8:1],1,7-4[8:1],7,
3-8[8:1],3,5-1[8:1],5,4-7[8:1],4,6h[8:1],,1b,
{16}7,8,7,8,7,8,{4}7-5[8:1]*-4[8:1],7,
{16}8/3,,2,1,2,1,2,1,{4}2-4[8:1]*-5[8:1],2,
{8}6^8[8:1],6,5q1[8:1],5,4p8[8:1],4,3^1[8:1],3,7^5[8:1],7,8p4[8:1],8,1q5[8:1],1,2^4[8:1],2,
{16}6,7,8,1,2,3,4,5,2,1,8,7,6,5,4,3,7,8,1,2,3,4,5,6,{2}7/3bw7[8:1],
{8}1/5,1/5,2/6,2/6,3/7,3/7,4/8,4/8,{16}4b/8,7,6,5,8b/4,3,2,1,4b/8,7,6,5,8b^5[4:1]/4,3,2,1,
{2}8/4b,3^8[4:1],6^3[4:1],1^6[4:1],{8}4^1[8:1],5,6,7^4[8:1],8,1,2<5[8:1],3,4h[4:3],,,
{32},3,2,1,8,7,6,5,,3,2,1,8,7,6,5s1[10.5#64:1]*s1[10.5#64:1],
{1},2h[64:1]/6h[64:1],3h[64:1]/7h[64:1],{2}8b/4b,
{16}8,4,8,4,8,4,8,4,8,4,8,4,8,4,8,4,7,3,7,3,7,3,7,3,6,2,6,2,6,2,6,2,5bz1[4:1],
E
