&title=PAИAGIA
&artist=BlackY
&first=0
&des=JDJDH
&clock_count=4
&lv_5=14+
&inote_5=(185)
{4}
,,,,
3h[4:3]/E5,E6,E7,E8,
7h[4:3]/E1,E2,E3,E4,
2h[4:3]/D5,D6,D7,D8,
6h[4:3]/D1,D2,D3,D4,
{12}
7,5,6,4,5,3,
4,2,5,3,6,4,
7,6,5,3,2,1,
E4,E3,E2,E1,E8,E7,
3,5,4,6,5,7,
2,4,3,5,4,6,
1,2,3,7,6,5,
{16}
E2,B2,B3,E4,E7,B6,B5,E5,
{12}
2,2,4,3,5,4,
6,6,5,7,4,8,
5,5,1,4,8,3,
{16}
7,,1,5,1,5,1,5,
{8}
2b-6[8:1],,6,4,8-4[8:1],2,8,3,7,5-2[8:1],6,5b/4-8[8:1],,1-6[8:1]/4b,,1b/7,
7b-3[8:1],,3,5,1-5[8:1],7,1,6,2b,4-7[8:1],3,4b/5-1[8:1],,8/5b,
{16}
B8,C,B4,,
{8}
2bqq5[8:3]/6,,,4,4b-8[8:1],,1,,3/7b-4[8:1],,,1,1b-6[8:1]/5,,4,,
7bpp4[8:3]/3,,3b,4,5b-1[8:1],,8b-4[8:1],,2b/8,3,5,3bV15b[8:2]/7bV51b[8:2],,3b/7b/Cf,,,
{16}
4,8,3,7,2,6,1,5,
8,4,1,5,2,6,3,7,
{12}
4b,6,5,1b/6,8,7,6/2b,3/7,4/8,1x/5x,4/8,3/7,
{16}
2b/6b,,5,5,2h[8:1],,4,4,2h[8:1],,3,3,1>4[8:1],,8,8,
1,,5v2[8:1],6,7,8,1/5x,,8,7,6,5/1bx,,,,,
7/3,,4,4,7h[8:1],,5,5,7h[8:1],,6,6,8<5[8:1],,1,1,8,,,3h[8:1],,,2-8[8:1]/4h[4:1],,,,2,,3-5[8:1],,6,7,
8h[8:1]/3,,,7h[8:1],,,4h[8:1]/6h[8:1],,,2h[8:1]/5h[8:1],,,6-4[8:1],,7,,
8h[8:1]/6,,,1h[8:1],,,3h[8:1]/2h[8:1],,,8h[8:1]/4h[8:1],,,1,,2,,
3,5,4,6,5,7,6x/8,5,4,3,2/6,5,4,3,1,,
2bh[8:1]/8bh[8:1],,,5bh[8:1]/7bh[8:1],,,3b/4b,,
E2f,E1,E8,E7,E6,E5,E4,E3,
7<5[8:1],,8,8,7-4[8:1],,1,1,7-3[8:1],,2,2,7,,,,
8h[8:1]/4h[8:1],,,2h[8:1]/5h[8:1],,,3<6[8:1]/7,,,,1,,1,8,7,6,
3>1[8:1],,4,4,3-8[8:1],,5,5,3-7[8:1],,6,6,3,,,,
4h[8:1]/8h[8:1],,,6h[8:1]/1h[8:1],,,7>2[8:1]/3,,,,5,,5,4,3,2,
7b,8,6,1,5,2,4,3,5,4,6,5,6x,7x,8x,1x,
2b,8,3,7,4,6,1b,8,2,7,3,6,4,5,3,4,
2b,5,4,8b,5,6b,3,7,1b,5,2b,8,4,7b,5,6,
4,8,3,7,2,6,1,5,8,4,1,5,2,6,3,7,
4b,,8V64[16:3],3,1,,8/2h[4:1],,,,,,3,,4,,
2/5,,1V35[16:3],6,8,,7/1V75[16:3],,,,1,,,,2,,
1/4,,5V71[16:3],2,4,,5/3h[4:1],,,,,,2,,1,,
3/8,,4V28[16:3],7,5,,6/4V68[16:3],,,,4,,,,3,,
5/2,,1V75[16:3],4,2,,1/3h[4:1],,,,,,3,,1,,
1/4,,8V24[16:3],5,7,,6/8V64[16:3],,,,8,,,,2,,
8/3,,4V68[16:3],1,3,,4/2h[4:1],,,,,,,,1,,
1b-5b[8:1]/8b,,,,5,,7b-4b[8:1]*-2b[8:1],,,,7b/Cf,,,,,,
{12}
3/5-8[8:1],,,5b/6,,,1/7-2[8:1],,2,7,3,,4/7-3[8:1],,5,7,6,,8w4[8:1],,,,,,
7/1-4[8:1],,,1b/2,,,5/3-6[8:1],,6,3,7,,8/3-7[8:1],,1,3,2,,4/3-8[8:1],,5,3,6,,
2b/7b-4[8:1],,,2,,,1/3<6[8:1],,2,3,2,2,
8h[6:1],,6h[6:1],,4h[6:1],,3h[6:1],,1h[6:1],,7h[6:1],,
6,6,8,5,1,4,
2,2,1,3,7,4,
5,5,2,6,1,7,
8-4[92.5#32:18],8,7,1,6,2,
{4}
,,
{24}
A2,D2,A1,D1,A8,D8,A7,D7,A6,D6,A5,D5,
{1}
A4f,,5-8[4:6]/7pp8[32:45],,
8-6-2-4[4:6],,1<4v6b[4:6],,
{8}
7h[4:1]/3-5[8:1],,,7h[8:3],,,5,,
8h[4:1]/5-1[8:1],,,8h[8:2],,1,,,
2h[4:1]/7-1[8:1],,,2h[8:3],,,1,,
3h[4:1]/1-5[8:1],,,3h[8:2],,5,,,
3,3,5,5,4,4,6,6,
5/7,5,4/8,8,3/7,3,2/6,6,
{16}
1,5,2,6,3,7,4,8,5,1,4,8,3,7,2,6,
1<1[16:8],8<1[16:7],7<1[16:6],6>1[16:5],
5>1[16:4]/A1,A8,A7,A6,A5,A4,A3,A2,A1/5,4,3,2,
7b-3[8:1],8x,7,6,7,,4b-1[8:1],2x,4,5,4,,
6b-1[8:1],8x,6,5,6,,3b-7[8:1],2x,3,4,3,,
{32}
A5f,D6,A6,D7,A7,D8,A8,,
{16}
2b-6[8:1],1x,2,3,2,,5b-8[8:1],7x,5,4,5,,
3b-8[8:1],1x,3,4,3,,6b-2[8:1],7x,6,5,6,,
4,3bx,3bx,3bx,
2b-6b[8:1],1x,3,4,2,,5b-8b[8:1],7x,4,1,5,,
3b-8b[8:1],1x,2,7,3,,6b-2b[8:1],7x,5,4,6,,
E4,E3,E2,E1,
7b-3b[8:1],8x,6,5,7,,4b-1b[8:1],2x,5,8,4,,
6b-1b[8:1],8x,7,2,6,,3b-7b[8:1],2x,4,5,3,,
4x,8x,5,1,6,2,7,3,
8,4,7,3,6,2,5,1,
4,3,2,1,
8/4>8b[16:4],3>7[16:4],2<6b[16:4],1<5[16:4],
8<4b[16:4]/A4,A3,A2,A1,A8/4,A7/3,A6/2,A5/1,
A4/8bs4b[4:3],,,,
(740)
{1}
,,,
(185)
{4}
8,1/7,
{16}
2h[8:1]/6h[8:1],,,3h[8:1]/5h[8:1],,,4,,
2b/6b,,,,
{24}
1x,2x,3x,7x,6x,5x,
{16}
4h[16:3],,,3h[16:3],,,2,,
1h[16:3],,,8h[16:3],,,7,,
5h[8:1]/6h[8:1],,,2h[8:1]/4h[8:1],,,3/7,,,,8,8,Cf,,
{24}
7,6,5,
{16}
1/4,,2-6[8:1],4,3-7[8:1],,4/2V48b[16:3],,3,,,A4f,,,
{24}
7x,6,5,1x,2,3,4,5,6,
{16}
1-5[8:1],8,7,6,5/1b,,,,
{24}
8,7,6,
2,3,4,
{16}
8/5,,7-3[8:1],5,6-2[8:1],,5/7V51b[16:3],,6,,,A5f,,,
{24}
2x,3,4,
{16}
8h[8:1],,,6h[8:1]/7h[8:1],,,3/5,,
{24}
2b,1,8,6,5,4,7,8,1,2,3,4,
{16}
5/6h[8:1],,,2h[8:1]/4h[8:1],,,8,,
1b/7b,,1b/7b,,
{24}
8,7,6,2,3,4,
{16}
1h[8:1],,,5h[8:1]/7h[8:1],,,3,,2/4-8[8:1],,,,
{24}
8,1,2,3,4,5,
{16}
6/7,,1-5[8:1],7,3<6[8:1],,1V37b[16:3]/2,,3,,,A3f,,,
{24}
8x,1,2,
{16}
5h[8:1],,,4h[8:1]/2h[8:1],,,6,,5/7,,
{24}
4,3,2,8,7,6,5,4,3,
{16}
1h[8:1],,,8h[8:1]/2h[8:1],,,3/7,,
{12}
4b,4,6,2,2,8,
{16}
1h[8:1],,,5h[8:1]/7h[8:1],,,3/4,,
7b,4,5,1b,4,3,6b,2,8,4b,7,1,5b,2,4b,3,
6b,1,7,4b,8,2,7b,3,5,1b,6,4,8b,2,5b,,
1b/5b,,1/5,,
{24}
2,3,4,6,7,8,
{16}
5,1,4,8,3,7,2,6,1b-5[8:1],,,,
{24}
5,6,7,8,1,2,
{4}
3V17b[16:3]/6bV42[16:3],,
{8}
A4/B4/Cf/B8/A8/E1/E8,,,,,,,,,,,,,,,,
2>4[8:1],,,5-8[8:1],,
{16}
,1,,2,,7<4[8:1],
{8}
,,,3-7[8:1],,,,,
6<8[8:1],,,1-4[8:1],,
{16}
,5,,6,,,
{8}
3x>8[8:1],,,7-4[8:1],,,,,
3>1[8:1],,,8-5[8:1],,
{16}
,4,,3,,6x,
{8}
2b-6[8:1],,,8b-4b[8:1],,4b,,,
{16}
3/6,,5,4,5,,2/5,,3,4,3V52-6[8:3],,2/5,,3,,6,,7-3-5-1[8:3],,8,,3/7,,,,2,,,,,,
8/3,,4,5,4,,7/2,,6,5,6V47-3[8:3],,7/4,,6,,3,,2-6-4-8[8:3],,1,,6/2,,,,7,,,,,,
1/6,,3,4,3,,2/5,,3-6[8:1]/4,,2/5,,3/6,,7,,
8/3,,6,5,6,,7/4,,6-3[8:1]/5,,7/4,,6/3,,2,,
1,5,2,6,3,7,4,8,
5,1,4,8,3,7,2,6,
{32}
1b,2,3,4,6,,5,,7,,4,,8b,7,6,5,3,,4,,2b,1,8,7,,,,,,,,,
{16}
7,8,6,1,5,2,4,3,
1,2,8,3,7,4,6,5,
3,4,2,4,1,4,8,4,
2,1,3,1,4,1,5,1,
4b/8,3/7,2/6,1/5,8/4,3,
6b/2,5/1,4/8,3/7,2/6,5,
8b/4,1/5,2/6,3/7,4/8,5,
2b/6,1/5,4/8,3/7,2/6,1,
8-4[8:1]/4b,1/5,2z6[8:17]/6,3/7,
4b/8-4-8b[8:16],,2,,
{1}
,,,E
