&title=VECTOЯ
&artist=WHITEFISTS
&first=0.065
&des=midoriboushi
&lv_5=14.3
&inote_5=(200){4},{1},,,,{8},2>5[8:1],
{2},{16}6,
5,6,5,{8}6,2,4/3,4,,1/8,
{4}2/8-5[8:1],8,{8}4,3,{4}2-8-4[4:1],
{2}B7/C/B3,{4}B5,E4,
{2}6-4-7[4:1],3h[4:1],
{4}7-4-6[4:1],7,{2}3h[4:1],
{4}2-5-3[4:1],2,{2}6h[4:1],
{8}6h[4:1],5,{4},2-5-3[4:1],2,
{8}6h[4:1],5,{4},8-4[8:1],8,
{8}3,4,{4}3-5[8:1],6-2[8:1],6V84[4:1],
{8}6,{4},{8}3,2,1,{4}8/4,
{8}6/3,3,6,3,7/3,3,{4}6/2h[4:1],
7-5[8:1],7,{8}3,2,{4}1/7,
{8}4/7,7,3,7,4/7,7,{4}4/8h[4:1],
3-5[8:1],3,{8}8,7,{4}5/6h[8:1],
{8}7/4,4,7,4,7/4,4,{4}8/3h[4:1],
7-4[8:1],7,{8}3,2,{4}1/7,
{8}3/7,7,3,7,3/7,7,{4}2/8h[4:1],
1-5[8:1],1-7[8:1]*-3[8:1],{2}1,
{8}1,2,7,6,3,2,6,5,
6,3,2,4,7,6,{4}8-5[8:1]*-3[8:1],
8b,{8}1,2-4[8:1],,2/6,{4}6<1[8:1],
{8}6/2,2-5[8:1],,2/7,,{16}6,5,6,5,{8}6,
{4}4-2[8:1],{8}4/1,1<6[8:1],,1/4,{4}4-2[8:1],
{8}4/8,8<5[8:1],,8/2,{16}3,4,3,4,{8}2,7,
{4}6-8[8:1],{8}6/2,2>5[8:1],,2/7,{4}7-4[8:1],
{8}7/1,1-5[8:1],,1/6,,{16}7,8,7,8,{8}7,
{4}1/6-4[8:1],{8}6/1,1-5[8:1],,1/7,{4}7-5-3[4:1],
{8}7/8,8>4[4:1],,8,5,6,7,8,
{2}B6/E7/B7/2b-4-1-5[2:1]*-4-1-5[2:1],{4}8-6[8:1],8,
{2}B2/B3/E3/7b-5-8-4[2:1]*-5-8-4[2:1],{4}1-3[8:1],1,
{2}6<2<6[2:1],{8}5,4,3,4,
5/3,6,7/5,6,5,6,{16}4,5,4,5,
{8}4b,5/6,{4}5/6-4[8:1],6,{16}1x,2,3,4,
{4}5h[8:1]/6h[8:1],6h[8:1]/5h[8:1],{16}3,4,3,4,3,4,3,4,
{8}3h[4:1],{4},{8}4,{4}5h[4:1],{8}2h[8:1],3h[4:1],
{4},5h[8:1]/6h[8:1],5h[8:1]/4h[8:1],4h[8:1]/3h[8:1],
3b-5-7-1[8:3]/2b-4-6-8[8:3],{2},{4}B2/E3/6b-8-5-1[2:1]*-8-5-1[2:1],
B3/B4,4-2[8:1],4,1h[4:1]/2xh[8:3],
,{8}1,2,1,8,1,7,
{12}8,7,8,6,7,5,6,4,5,3-6[8:1],{6},{4}3/2,
{8}7/4,{16}6,5,{4}6h[4:1],{16}2,8,2,8,
{4}1h[8:1],{8}1,{24}5,4,5,{8}4,3,6,8/1pp5[8:3],
,1,{2},{8}6/8,8/6,
{4}6-3[8:1]/8-5[8:1],6/8,2w6b[8:1],{16}2b/1,Cf/B6/B2,{8},{4}7x-5[8:1]*-3[8:1],
7b,{8}2/4,2/5,2/6,2/7,
2/8-4[8:1],3,8-6[8:1],3,8-4[8:1],3,{4}8,
{8}3/4x,2,3/4,{16}6,5,{4}7,4h[4:1]/2V86[4:1],
2b,4bw8b[8:1],4b,{8}1x,1,
{4}2-4[8:1]*-6[8:1],2b,{8}7/5,7/4,7/3,7/2,
7/1-5[8:1],6,1-3[8:1],6,1-5[8:1],6,1,7-2[8:1],
,7/4,,5,5/6,4,3,2,
1/8,7,1/8,2,{2}8p5[2:1],
{1}4h[1:1],
5h[1:1],
6h[1:1],
3h[1:1],
{8}5h[1:1],{4},{8}B4,{2}B3,
{8}B3,B4,{4},{2}6h[2:1],
{8}B4,B3,{4},{2}4h[2:1],
{8}B6,B5,,3h[8:5],{2},{8}B6,
B5,{4},{2}3/B6,
3/B5,{8}4/B6,B5,{4},{8}4/E7,
B6,{4}B5,6h[2:1],B3,
{2},6/B3,
{8}6h[2:1]/B3,B4,{4},{8}B3,B4,,6h[8:1]/B3,
{2}B4,{8}5h[2:1],{4},{8}B3,
{4}B4,B6,3/B5,B6,
3/B5,B6,3/B5,B6,
3-5[8:1],3/2,1-3[8:1],1/8,
7-1[8:1],7/6,2-6[8:1],2/1,
{8}5/6x,4,3/7,8,5/1,7,4/2,6,
3/5,1,7/3,2,4/6,3,5/7,8,
{16}1b/8b,2/7,{8}3/6,{4}5-1[8:1],5,1x-6[8:1]*-4[8:1],
1,{8}5/7,5/7,4/6,4/6,3/5,3/5,
2/4,2/4,{16}3,5,3,5,4,6,4,6,5,7,5,7,
6,8,{8}6,{4}6-3[8:1]/8-5[8:1],6/8,1/2bw6b[8:1],
{16}2b,Cf/B2/B6,{8},{16}6x,5,{8}6,6,6/4,6/3,6/2,
{4}6/1b-3b[8:1],1b/8b-4b[8:1],8b/7b-5b[8:1],7b,
{16}3,4,{8}3,{16}6,5,{8}6,7,2/8,3/7,4/6,
{4}5/8b-4b[8:1],8b/5b-1b[8:1],5b/2b-4b[8:1],2b,
{16}7,8,{8}7,{16}1,8,{8}1,8,7/1,2/6,3/5,
{4}4b-8b[8:1],4b/5b-7b[8:1],5b/1b-5b[8:1],1b,
4-8[8:1]/8-4[8:1],4/8,{12}2/5,3,4,5,3,4,
{8}5,6,7,5/8<6[8:1],1,2,3,5s1b[8:1]/4-8[8:1],
,5/4,,8x/1xh[4:1],{4},{8}7,3h[8:1]/7h[8:1],
,4h[8:1]/8h[8:1],,1h[8:1]/5h[8:1],,{16}1,5,8,4,7,3,
{4}E2f/B1/A1/D2/A2/B2,4>7[4:1],{8}4/1h[2:1],{4},{16}2x,8x,
7x,6x,5x,4x,{4}3/7-3[8:1],7-5[8:1],7,
{2}B7/B8/A7/D8/A8/E8f/4b-2-8-6<3[2:1],{8}4,5,6,5,
6,4,{12}5,4,6,5,7,6,7,5,6,
4,5,3,4,3,4,2,3,2,4,3,5,
{16}4,5,4,6,4,5,4,5,3,5,4,6,4,5,3,5,
{1}4h[1:1],
7-4-1[4:1],
1>1[8:3],
1-4[4:1]/8z4[4:1],
{8}6/3,3,6,3,7/3,3,{4}6/2h[4:1],
7-5[8:1],7,{8}1,2,{4}3/5,
{8}4/7,7,3,7,4/7,7,{4}4/8h[4:1],
3-5[8:1],3,{8}6,7,{4}8/2h[8:1],
{8}7/4,4,7,4,7/4,4,{4}8/3h[4:1],
7-4[8:1],7,{8}1,2,{4}3/5,
{8}3/7,7,3,7h[4:1],{4}3,2/7,
1-4[8:1]/8-5[8:1],1/8,{16}6/2,7/3,{8}8/4,{4}5-1[8:1]/1-5[8:1],
1/5,{8}3-5[8:1]/7-1[8:1],1/5,3/7,{4},{8}2/6,
{4}4h[4:1]/8-4[8:1],8,{8}6/2,8-4[8:1]/4-8-2-6-4[8:9],,4/8,
{1},,6-4-8-2-6[4:3],
{2},{16}5-1[4:1],6,7,8,1,2,3,4,
{1}5,
