&title=I
&artist=黑魔
&first=1
&des=sb
&lv_5=13+
&inote_1=
&inote_4=
&inote_5=(225)
{1},
{2}
2/7h[2:3],2,
,2,2h[2:3]/7,7,,7,
{8}
E8/3,B8,B1,E2,7/E4,B4,B5
,E6,
B6,E7,B7,A7,B8,D8,E1,A8,
E6/2,B5,B4,E4,6/E2,B1,B8,E8,
B7,E7,B6,A6,B5,D6,E5,A5,
{2}
3/6h[2:3],3,,3,3h[2:3]/6,6,,6,
{16}E3,B3,B4,E5,
{8},6,5,,,
,
{16}E7,B6,B5,E5,
{8},3,4,,,,
{16}E7,B7,B8,E1,,,E3,B2,B1,E1,,,E7,B6,B5,E5,,,E3,B3,B4,E5,,,
{2}Ch[16:3],
{8}7h[8:1]/3,2,,2h[8:1]/7,6,,6h[8:1]/2,1,,1h[8:1]/6,5s1[4:1],,,,,,
{8}5h[8:1]/1,8,,8h[8:1]/5,4,,4h[8:1]/8,7,,7h[8:1]/4,3,,Ch[4:1],,,,
{16}6h[8:1]/1,2,3,,,,3h[8:1]/6,7,8,,,,8h[8:1]/3,4,5,,,,5h[8:1]/8,1,2,,,,
{2},
{8}2,3,2,6,7,6,2,1,8,
{16}7,8,8-4[8:1],8,8,8,8b,Cf,,,,,,,
{4}4<4<8[8:10],3,2,1x,8,7>7>3[8:11],6,5,4x,3,2>2>6[8:11],1x,8,7x,6,5<5<2[8:13],
4x,3,2,1,8,7,6,5,
{16}3,,2,,1,,8,7,6,5,4,5,,,3,4,5,6,7,6,5,4,3,2,3,4,5,6,
{8}
3/7-5-3[8:5],,7,,
3-1-7[8:5],,3,,
7-5-3[8:5],,7,,
3-1-7[8:5],,3,,
7-4-2[8:5],,7,,
2-8-6[8:5],,2,,
6-4-2[8:5],,6,,
2-8-6[8:5],,2,,
6-3-1[8:5],,6,,
1-7-5[8:5],,1,,
5>4-1-5[8:9],,5,,
1,,1,,8,,7,,6,,5,,4,,36,4,5,36,4,5,3h/6h,36
,
,,
{16}4,5,3,6,27,,
{8},
2-5[8:1],13,2,,1q5[8:1],28,1,,
7v5[8:1],86,7,,8-5[8:1],71,8,,
4-2[8:1],35,4,,4-1[8:1],35,4,,
4p8[8:1],35,4,,4p7[8:1],35,4,,
2-5[8:1],13,2,,1q5[8:1],28,1,,
{16}
8,,,1,7,2,8,,1,,,8,2,7,1,,8,,,2,7,1,8,,1,,1,,
{12},1,
{24},1b,,,,
{8},
2/7-5[8:1],7h[8:1],,,2/5-2[8:1],5h[8:1],,,
3/2-7[8:1],2h[8:1],,,3/7-5[8:1],7h[8:1],,,
6/3-1[8:1],3h[8:1],,,6/1-6[8:1],1h[8:1],,,
7/6-3[8:1],6h[8:1],,,7/3-1[8:1],3h[8:1],,,
{8}2-4[8:1]/7,,2,7-5[8:1],5,7,3-1[8:1],4,3,6-8[8:1],8,6,2,,Ch[8:1],,
{16}B5,B6,B7,B8,B1,B2,B3,B4,E5,E6,E7,E8,E1,E2,E3,E4,
4,5,3,6,2,7,1,8,2,7,3,6,4,,,,
{8}5b<5<6q7>5[4:22],,,,3h[2:1],,,,4h[2:1]
,,,,3h[2:1],,,,1h[8:14],,,,,,,,,,,,,,,2x<6[1:4],3h[1:1],,,,,,,,,,,,,,,,2h[2:1],,,,,,,,,,
{8}2,1,2,,3,4,5h[48:38],
{8},,,,,
{16},,4,,
{8}3h[8:9],,6,7,,,,7,,,,,,,7,8,1h[8:3],,,2h[8:3],,,3h[8:3],,,
4h[8:3],,,
{16},,A4,D4,A3,D3,A2,D2,1h[16:8],,
{4},,
{16}A1,D1,A8,D8,A7,D7,
{1}6h[1:1],
{8},,,,,,,,
{12}3/6b,4,5,6,7,8,1/4b,3,2,1,8,7,4b/6,5,6,7,8,1,2/5b,4,3,2,1,8,2b/7,3,4,5,6,7,5b/8,4,3,2,1,8,4b/7,5,6,7,8,1,2/6b,5,4,3,2,1,
8b,,,6,5,6,5b,,,3,4,3,4b,,,6,5,6,5b,,,3,4,3,4,2,1,8,7,6,5,4,3,2,
{16}1,8,1,8,1,8,1,8,1,8,1,8,1,8,1,8,1,8,1,8,,,,
{48},Ch[8:1],,,,
{1},,,
{8},,,,,
(75)
{48}1-6[24:1]/5-2[24:1],,,,E2/E6,B2/B6,B3/B7,B4/B8,E5/E1,,,,1<8-4[12:1]/5>4-8[12:1],,,,
{48},,,,A3/A7,D3/D7,A2/A6,D2/D6,A1/A5,,,,,,,,
{48}4x<7[24:1]/8x>3[24:1],,,,E8/E4,B7/B3,B6/B2,B5/B1,E5/E1,,,,8x/4x,,,,
{48}5>3[24:1]/1<7[24:1],,,,E1/E5,B8/B4,B7/B3,B6/B2,E6/E2,,,,5<7-2[12:1]/1>3-6[12:1],,,,
{48},,,,A7/A3,D8/D4,A8/A4,D1/D5,A1/A5,,,,,,,,
{48}6q2[24:1]/2q6[24:1],,,,E2/E6,B1/B5,E1/E5,B8/B4,E8/E4,,,,26,,,,
(225)
{12}1,5,7,3,7,1,5,3,7,3,7,2,6,2,6,1,5,2,6,3,7,4,8,4,
(75)
{48}8-6[24:1]/4-2[24:1],,,,E2/E6,B2/B6,B3/B7,E4/E8,A4/A8,,,,4-6-3[12:1]/8-2-7[12:1],,,,
{48},,,,E2/E6,B2/B6,B3/B7,B4/B8,E5/E1,,,,,,,,
{48}2-8[24:1]/6-4[24:1],,,,E3/E7,B3/B7,B4/B8,B5/B1,E6/E2,,,,26,,,,
{48}7-5[24:1]/3-1[24:1],,,,E2/E6,B2/B6,B3/B7,E4/E8,A4/A8,,,,3<6[12:1]/7>2[12:1],,,,
{48},,,,E6/E2,B5/B1,B4/B8,E8/E4,A7/A3,,,,,,,,
{48}7-1[24:1]/3-5[24:1],,,,E7/E3,B6/B2,B5/B1,B4/B8,E4/E8,,,,73,,,,
(225)
{12}1,5,7,3,7,1,5,3,7,3,7,2,6,2,7,1,7,1,8bq5[4:1]*p3[4:1],,,,,,
{4},
{12}
3-1[6:1],5,5,3,,,
8-6[6:1],2,2,8,,,
5-3[6:1],7,7,5,,,
2-8[6:1],4,4,2,,,
7-5[6:1],1,1,7,,,
4-2[6:1],6,6,4,,,
1,3,3,1,
{12}8,7,6,8,7,
{24}6x,5x,6x,5x,6x,5x,6x,5x,6x,5x,6x,5x,
{12},,6,,4,,
{24}2x,3x,2x,3x,2x,3x,2x,3x,2x,3x,2x,3x,
{12},,2,,1,,
{16}8,1,2,3,4,5,6,7,8,1,2,3,4xq8[8:1],5,6,7,
{16}4x/8xq4[8:1],,,,8x-6-4[8:1]/4x-2-8[8:1],,,,4xq8[8:1]/8xq4[8:1],,,,8x<8<4[1:3]/4x>4>8[1:3],,,,,
{1},,,
{16},,,,Ch[8:1],,
&inote_7=
