&title=In Vain
&artist=ryhki
&first=0
&des=布丁罐头
&lv_5=13+
&inote_1=
&inote_5=(165)
{8},,,,,,,,
{8}1h[16:1],,1h[16:1],8,1h[16:1],8,2b/7b,,
{1}E8/B8/B1/E2/B2/B3/E4/B4/B5/E6/B6/B7/Cf,,7/5qq2[2:1],
{2}8qq5[2:1],2^5[8:1],7-2-5-1b[2:1],,3z7v5[2:1],,
4qq1[2:1]/6qq8[2:1],,2v4-2[2:1]/7v5-7[2:1],,
{16}3x,,5,,3,5,,,3h[8:1]/5,,,,3h[8:1]/5,,,,
6,,4,,6,4,,,6h[4:1]/2-5[8:1],,,,,,,,
4x,,6,,4,6,,,4h[8:1]/6,,,,4h[8:1]/6,,,,
6-3[8:1]/3h[4:1],,,,,,,,1-5[8:1]/7h[4:1],,,,,,,,
{8}7/4x,6,6,6,35,2,2,2,34,45,6,6,78,18,2,2,
{16}3,4,3,4,2,4,2,4,1,4,1,4,8,4,8,4,
7xh[16:1],,,,7h[16:1],,5,,7h[16:1],,5,,6b/8b,,,,
{1}E8/B8/B1/E2/B2/B3/E4/B4/B5/E6/B6/B7/Cf,
{64}1b-5[8:1]/8b-4[8:1],2x/7x,3x/6x,4x/5x,,,,,,,,,,,,,
{4}1^4[8:1]/8,18,{8}8b,17,
2-6-3[4:1]/6,,12,,8h[8:3],,B1,,
1x-5[8:1],,1/8-4[8:1],,78,,3b/6b,,
25,25,2>6[8:1]/5,,26,,{16}8h[4:1],,6x,5x,
{8}4>5[2:1],,,,E8f/B8/B7,,,,
5xh[8:1],,5-1[8:1]/4,,5/3h[8:3],,B7,,
3-6[8:1],,73,,{16}8,7,6,5,1-3-6[4:1],,,,
71,,,,8,,8,,8,,8,71,6/2-5[8:1],,,,
7-3[8:1]/2,,,,7/4-8-2-6[8:3],,,,4,,,,,,,,
{8}7b^4[8:1],,,,1,2,3,4,5^2[8:1],,,,1,8,7,6,
5h[8:1]/4h[8:1],,3h[8:1]/2h[8:1],,1h[8:1]/8h[8:1],,7h[8:1]/6h[8:1],,
4b/5,2/7b,1b/8,2/7b,3b/6,,73,62,
1v3[8:1]/5,,1/5v7[8:1],,5-2[8:1],,5,6,
{16}8x-5[8:1],1x,1x,,8^3[8:1],,,,8/6x,,,,7,7x,3,3x,
6/2x^5[8:1],,,,2/7^2[8:1],,,,7,,,4,4,,5,,
{8}3/6<5[2:1],,,,B2/B1/E2f,,,,
{16}4xb-2[8:1],,,,4/6-1[8:1],,7,,6/4-8[8:1],,,,4,,5,6,
7-3[8:1],,,,1-5[8:1]/7,,,,14,,,6,6,,5,,4h[24:8]/8h[24:8],,,,,,
{24}37,2x/6x,1x/5x,{8}8x-4[8:1]/4x,7x,8,,{1}3xz7b[2:1]/7s3[2:1],
{8}6xh[1:1],,,,B6,,,,5xh[1:1],,,,B5,,,,4xh[1:1],,,,B4,,,,
3xh[1:1],,B3,,C,,B7,,2xh[1:1],,,B2,C,,,,1xh[1:1],,,B1,C,,,,
8xh[1:1],,B8,,C,,B4,,{64}7xb,B7,C,B3,,,,,,,,,,,,,
{8},,,4,3,2,8^5v7[4:1]/1,,,2,2,,1h[2:1],,
7,6,5h[2:1],,3,2,1,,
5^8v6[4:1]/1,,,3,3,,4h[2:1],,
6,7,8h[4:1],,1,72,36,,
5h[4:1]/4h[8:1],,3,3,3h[4:1],,7xh[4:1],,
8,16,2h[4:1]/5,,3,14,5/8h[4:7],,
5^7-4[4:1],,,,,,5^3-7[4:1],,,,,,5h[4:1],,,,
{2}E8/B8/B1/E2/B2/B3/E4/B4/B5/E6/B6/B7/Cf,,{4}E8,E2,E4,E6,
{8}5x-2-6[3:1]/7x,,7,,C/8-4[8:1],,8,,
3,3,3h[8:2],,{64}7x,E7,B6,B5,,,,,,,,,,,,,{8}3-8[8:1],,
7,7,7h[4:1],,{64}1x,E2,B2,B3,,,,,,,,,,,,,{8}7-4[8:1],,
2,2,2,2,{64}2x/6x,E3/E7,B3/B7,B4/B8,,,,,,,,,,,,,{8}C,,
5-8-4[3:1]/2,,2,,C/2-6[8:1],,2,,
5,5,5-8[8:1]*-7[8:1],,5-2[8:1]*-3[8:1],,5,,
7h[8:3],,,2,2,7,2h[8:3],,,
7,7,2-6[8:1],15,,,,
5,5,5,5,5^7[8:1]/4h[4:1],,5,,2,2,2,2,2^4[8:1]/8h[4:1],,2,,
{16}7xh[8:1]/5xh[8:1],,,6h[8:1]/4h[8:1],,,53,,5h[8:1]/3h[8:1],,,,2<4[4:1]/4,,,,
4^1b[8:1],,,,,,,,E1f/B8/B1,,,,{12}3x/6x,,5,
4-1[8:1],,,7^5[8:1]/4,,,7p3[8:1],,,17,,1,
1-4[8:1],,,1/7-5-3[4:1],,,72,,,1,1,1,
1-7[8:1]*-3[8:1],,,1-6[8:1]*-4[8:1],,,1,,,3hx[6:1]/7x,,6,
3,,26,,5^8[8:1]/1,,51,,,2b,,,
2-4[8:1]/6,,6,2-8[8:1],,6,2,,,{24}6,5,4,3,2,1,
{12}4/8v6[8:1],,,8q5[8:1],,,8^3[8:1],,,8,,4x,
{24}4x-1[8:1],,,,,4x,{12},5x-8-4[4:1],,,1x/5x,,,,,
{8}5/3<2[2:1],,,,E6f/B5/B6,,,,
{16}8xhb[4:1],,,,1h,,2h,,3hh[8:1]/7hh[8:1],,,,2h[8:1]/6hh[8:1],,,3b/5b,
3xb/5xb,,,,2h[8:1]/4h[8:1],,,,5h[8:1]/7h[8:1],,,,4h/6h,,3h/7h,,
2h/8h,,,,8h,,7h,,6h[8:1]/1h[8:1],,,,6h,,1h,,
7b/8b,7b/8xb,,,1h/6h,,2h/5h,,3h/4h,,,,E8/B8/B1/E2/B2/B3/E4/B4/B5/E6/B6/B7/Cf,,,,
{8},,,,B8,B7,B6,B5,,,,,B4,B3,B2,B1,
8x^5[4:1],,5x^2[4:1],,2x^7[4:1],,7x,,
6b,5b,4b,3b,{16}2b/E6f/B6/B5,,,,3,4,2,,
1-4[8:1]/5,,,,1v6[8:1]/5,,6,,17,,,,8v5[8:1]/7x,,,,
8/6-2[8:1],,7,,6x/8,,,,8-5[8:1]/1x,,7,,1v6[8:1]/8,,2,,
1-4[8:1]/3,,,,1/7x,,7,,7-4[8:1]/2-5[8:1],,,,72,,,,
3x/6x-8[8:1],,5,,6/3-1[8:1],,1x-4[8:1],,35,,,5,5,,6,,
7^5[8:1]/3^1[8:1],,37,3x/7x,37,,,,8x-5[8:1]/4xv1[8:1],,,,4/8-3[8:1],,,,
6x/8xp4[8:1],,7,,28,,2,,2/6^1[8:1],,,4,6,,4,,
4-8[8:1]/5-1[8:1],,,,45,,,,7/2v5[8:1],,36,,2/7-3[8:1],,,,
74,,,4,4x-1b[8:1],,7,6,5xb/4b,,,,8-4[8:1],,2,,
8-6[8:1],,3,,8-4[8:1],,4-7[8:1],,8,,3,,2-6[8:1],,1,,
28,,1,,1x-5[8:1],,8x-6[8:1],,1x-3[8:1],,8x-4[8:1],,1-5[8:1],,8,,
1^4[8:1],,6,,1v6[8:1],,6-3[8:1],,1,,7,,7-3[8:1],,8,,
7/1h[4:1],,,,{24}2x,3x,4x,5,6,7,{16}8-4[8:1],,,,1b/8b,,1x,2,
3-8[8:1],,,,35,,,,17,,17,,17,,1b/7b,2b/6b,
3b/5b-1[8:1],,,,5/7^4[8:1],,,,73,,{24}3x,2,1,{16}8b-3[8:1],,4,,
{8}5h[4:3]/8,,,B3,B1/B2/E2,,4h[2:1],,,B6,B8/B7/E8,,
A8/B8/A4/B4/A2/B2/B6/A6/Cf,,,,Ch[1:3],
