&title=epitaxy
&artist=かめりあ
&first=0
&des_5=-東北ずん子-
&lv_5=14
&des=-東北ずん子-
&inote_5=(183){2},,
{2}4h/5<4[4:7],,
{2},{4}6,6qq8[4:7],
{2},,
{4},,{4}2,2qq4[4:7],
{2},,,{4}7,6,
{8}5<4[2:3],,,2,,,1q5[4:3],,{2},,
{8}2<3[4:3]/6h[8:4],,,,
,,,,
{4}8h,,
2-6[8:1],6<4[4:3],
{4},,
7,6^1[4:1],
{4}4,3,
2pp1[2:1],8h[2:1],
{4},,
7qq1[2:1],2h[2:1],
{8},,,,
3-7[4:1],,,{16}7,6,
{8}5V37[8:3]*V37[8:3],,8,,
1,1,,1/7,
{16}2,6,2,6,3,5,3,5,
{2}4w8[8:1],
{32}2qq6[4:3]/6,3,4,5h[32:41],{8},,,{2},
{8},,6,7,
{4}8h[8:1],{32}7pp3[4:3]/2,6,5,4h[32:49],{8},
{2},,
{8},,3,2,
{4}1h[8:1],{32}7pp3[4:3]/2,6,5,4h[32:49],{8},
{2},,
{8},,3,2,
{4}1<3[4:1],1/5,
{8}1-5[8:1],,2,3-7[8:1],,4,5pp1[2:1],,
{2},
{2}4w8[8:1],
{32}2pp8[4:3]/6h[4:1],3,4,5,{8},,,{4}6,6,
{8}6,,8/1,2,
{4}3h[8:1],{32}7qq1[4:3]/2h[4:1],6,5,4,{8},
{4},3,3,3,4h[2:1],{8}8,7,
{4}6h[8:1],{32}2pp1[4:3]/7h[4:1],3,4,5,{8},
{4},6,6,6,6-4[8:1],{8}3,2,
{4}1V73[4:3],4h[4:1],,5,5,6V85[2:1],
{2}8pp3[4:3],,
{8}4<8[2:1],,,
1,,,
3,,
{8}5>1[2:1],,,
8,,,
6,,
{8}1/4pp8[2:1],,,
2,,,
3,,
{8}8/5qq1[2:1],,,
7,,,
6,,
{8}1h[8:1]/5,5,6h[8:1]/2,2,
3h[8:1]/7,7,8h[8:1]/4,4,
{8}5h[8:1]/7,7,6h[8:1]/4,4,
3h[8:1]/5,5,4h[8:1]/2,2,
{16}3,4,2,5,
1,6,2,7,
{16}3,8,4,1,{32}5,6,7,8,1,2,3,4,
{4}8-4[8:1],5V73[4:1]`8V61[4:1]*V61[4:1],{2},
{8}4/6,7,2/8,{16}3,4,2,4,{8}3,1/7,6,
{8}4-2[8:1],5,6/4,{16}7,7,1-5[8:1],,{8}8,1/7,6,
{8}4/3,2,7/1,{16}6,5,7,5,{8}6-2[8:1],,6/8-4[8:1],
{8},8/1,1-3[8:1],,5,5,7/5,6,
{8}5/3,2,7/1,{16}6,5,7,5,{8}6,8/2,3,
{8}4-2[8:1],5,4/7,{16}8,8,1-5[8:1],,{8}2,1/3-7[8:1],4,
{8}6<3[4:1]/3,,6/2,4qq8[8:3],,4/5,6h[4:1],,
{8},7,8-5[4:1]/1-4[4:1],2,,,,,
{8}5/3,2,7/1,{16}6,5,7,5,{8}6,8/2,3,
{8}5-7[8:1],4,3/5,{16}2,2,8-4[8:1],,{8}1,8/2,3,
{8}5/6,7,2/8,{16}3,4,2,4,{8}3,{16}1-5[8:1],8,2,7,
{4}1p7[4:1]*q3[4:1],,
,{32}4b-8[8:1]/6b,3/7,2/8,1,,,,,
{4},{32}1-5[8:1]/7,2/6,3/5,4,,,,,{8},,4/6,{16}3,3,
{8}7-5[8:1],8,1/7,2,3-1[8:1],{16},4,{8}3,{16}6,6,
{8}8-3[8:1],7,8/6-1[8:1],6,6/4-7[8:1],4,4/2,2,
{16}2,1,3,8,4,7,5V71[16:3],6-1[8:1],{4},,
{16}2-6[16:1],,,
2h[16:3],,,
,,
{16}6-1[16:1]/1-5[16:1],,,
1/6,,,
,,
{16}5^2[16:1]/1-5[8:1],,,
1/5<2[16:5],,,
,,
{4}2-6[8:1],5s1[4:1],
{4},7-3[8:1],
{8}7/3V58[16:3],,2q4[8:3],1,
{8},8,7-5[8:1],7-3[8:1],
{2}7-1[8:1],
{16}2-6[16:1],,,
2h[16:3],,,
,,
{16}2-5[16:1]/5-1[16:1],,,
5/2,,,
,,
{16}1^6[16:1]/5-1[8:1],,,
5/1>6[16:5],,,
,,
{4}6pp5[4:1],8h[4:1],
{16},,8,7,
4h,3,7,6,
{16}1b,,6,5,
3,2,5h,4,
{16}2,1,6,5,
3h,2,7,6,
{16}4qq5[4:1],3,8,7,
,,,,
{8}8-4[8:1],1-5[8:1],8,1,
{16}7-3[16:1],,,
7h[16:3],,,
,,
{16}3-8[16:1]/8-4[16:1],,,
8/3,,,
,,
{16}8-4[16:1]/5<1[16:3],,,
5/8>7[16:5],,,
,,
{4}3,1-5[8:1],
{8}8b/1b,,7p5[8:3],8,
{8},1,2-4[8:1],2-6[8:1],
{2}2-8[8:1],
{16}7-3[16:1]*-5[16:1],,,
7,,,
,,
{16}4-8[16:1]*-2[16:1],,,
4,,,
,,
{16}1-5[16:1],,,
7-3[8:1]/1,,,
3-7[8:1],,
{16},1h[16:3],{8},,,
{16}2-6[16:1]*-4[16:1],,,
2,,,
,,
{16}5-1[16:1]*-7[16:1],,,
5,,,
,,
{16}8-4[16:1],,,
8/2-6[16:1],,,
2/5>7[8:3],,
{2},
{2}5p4[2:3],,,{4}3,3p2[2:3],
{2},,,{4}1,1p8[2:3],
{2},,,{4}7,7-2[8:1],
{8}3h[8:3],,,5h[4:2],
{16},,,,
6,7,8,1,
{16}2/3,4,5,6,
2/7,3/8,4/1,5/2,
{16}6,7,8,1,
{32}2qq6[8:6]/7,6,{16}5,1,8,
{2}2b<3[1:1],,{8},,1,8,{4}7qq3[8:5]*<8[4:5],7b,
{2},,
{4}5V31[4:1],{8}7,6,{4}5,1/8-4[8:1],
{8}8/2,2,3h[8:1]/5,5,
4/6h[8:1],4,5h[8:1]/7,7,
{8}8/3,8/3,7/2,7/2,
6/1,6/1,5/8,5/8,
{16}1,6,2,7,
3,8,4,1,
{16}5,8,4,7,
3,6,2,5,
{24}1,2,3,5,6,7,
2,3,4,6,7,8,
{24}2,3,4,5,6,7,
8/1,2,3,4,5,6,
{2}2V84[4:6]/7V15[4:6],,,,
{16}4,5,4,5,3,6,3,6,
2,7,2,7,1,8,1,8,
{32}1,2,3,4,1,2,3,4V26[32:9],{4}1V38[4:1]*V38[4:1],
{2},
{16}1,8,1,8,
4,6,3,5,
{16}1,8,2,7,
3,4,2,5,
{16}1,8,1,8,
4,6,1,5,
{16}3,8,4,6,
1,7,5,6,
{16}3,4,2,4,
1,8,5,7,
{16}5,6,5,7,
1,8,2,7,
{16}3,4,2,4,
1,8,5,7,
{32}3,2,{16}1-5[12:1],6,5,
,,,,
{16}8-4[8:1],1,2,3,
8b,,,,
{16}1,8,2,7,
3,4,2,5,
{16}1,8,1,8,
4,6,1,5,
{16}3,8,4,6,
2,1,2,3,
{16}2,7,8,7,
6,7,1,8,
{16}2,5,3,6,
4,7,5,8,
{16}2,1,2,3,
2h[8:1],,8,7,
{16}1-5[8:1]/6-2[8:1],2h/5h,3h/4h,,
,,,,
{16}1,8,1,8,
4,6,3,5,
{16}1,8,2,7,
3,4pp2[16:7],2,5h[16:9],
{4},,,
{16}8b/1b,7/2,3,4,
{16}8,1,8,1,
5,3,6,1,
{16}7,5,6,2,
8,3pp1[16:7],4h[8:5],,
{4},,,
{16}8b/1b,7/2,6,5,
{16}1,8,1,8,
4,6,3,5,
{16}1,8,2,7,
3,4,2,5,
{16}1,8,1,8,
4,6,1,5,
{16}3,8,4,6,
2,1,2,3,
{16}2,7,8,7,
6,7,1,8,
{16}2,5,3,6,
4,7,5,8,
{4}2>5[8:1]*<7[8:1],2bw6[8:1],2b,4b/8b,
{16}5/6V47[4:1],,,4,{8}6,3,
{16}2V83[4:1],,,8,{8}2,6,
{16}4-8[8:1],,,2,{8}4V25[4:1],3,
{8}5qq1[8:3],6,7h[8:1],,
{16}8V61[4:1],,,2,{8}8,3,
{16}4V25[4:1],,,6,{8}4,7,
{16}8-4[8:1],,,3,{8}8V61[4:1],2,
{8}1qq5[8:3],2,3h[8:1],,
{16}2V41[4:1],,,4,{8}2,5,
{16}6V85[4:1],,,1,{8}6,3,
{16}4-8[8:1],,,2,{8}4V25[4:1],3,
{8}5pp2[8:3],6,8h[8:1],,
{8}1bqq5[4:1],,1,3bqq6[4:1],,3,4bw8[4:1],,
{4},,{16}1,2,3,5,6,7,1,2,
{16}4/3V52[4:1],,,6,{8}6,7,
{16}8V61[4:1],,,2,{8}2,3,
{16}4>1[8:1],,,5,{8}5V74[4:1],6,
{8}4-8[8:1],3,2qq5[16:5],,
{16}1/2,,,7,{8}7qq8[16:5],6,
{16}4,,,3,{16}3,,1,2,
{2}3V51[4:1]/6h[2:1],
{4},1/8-4[8:1],
{8}8/2,2,3h[8:1]/5,5,
4/6h[8:1],4,5h[8:1]/7,7,
{8}8/3,8/3,7/2,7/2,
6/1,6/1,5/8,5/8,
{16}1,6,2,7,
3,8,4,1,
{16}5,8,4,7,
3,6,2,5,
{32}1,8,7,6,5,4,3,2,
{32}1,8,7,6,5,4,3,2,
{32}1,8,7,6,5,4,3,2,{4}1h[4:9]/8h[4:9],
E
