&title=好きって言って
&artist=ちいたな; ONE
&first=0.025
&des=卍 卍 卍
&lv_5=13+
&inote_5=(195)
{1},
{4}4/3h[8:3],
{8},6h[2:1],,1,,5,5h[8:1],8,,
2h[2:1]/6,,3,,7,7h[8:1],5,,
3h[2:1]/4,,1,,5,5h[8:1],8,,
1-4[8:1]/6-4[8:1],,,,5-8[8:1]/2-8[8:1],,,,
7h[2:1],,5,,1,1h[8:1],4,,
3/8h[2:1],,6,,2,2h[8:1],5,,
7/4h[2:1],,1,,6,6h[8:1],8,1,
25,3,46,7,18,
2,2,2,
2h[2:1],,5,,1,1h[8:1],4,,
6h[2:1]/2,,7,,3,3h[8:1],1,,
7h[2:1]/8,,5,,1,1h[8:1],4,,
5-8[8:1]/2-8[8:1],,,,1-4[8:1]/6-4[8:1],,,,
3h[2:1],,1,,5,5h[8:1],8,,
7/4h[2:1],,2,,6,6h[8:1],1,,
3/8h[2:1],,5,,2,2h[8:1],4,
4h[4:1],,3,25,6,78,1,1,1,
1-3[8:1],,4,,5v3[16:3],,7,,8-6[8:1],,5,,4v6[16:3],,2,,1p5[8:1],,,,1p5[8:1]/8^6[8:1],,,,34,,15,,47,,56,,
1^4[16:3],,4,,5qq3[16:3],,7,,8^5[16:3],,5,,4pp6[16:3],,2,,
1q5[8:1],,7,8,1q5[8:1],,,,1q5[8:1]/2^4[8:1],,1^7[8:1]/2p6[8:1],,,,
34,,
2pp1[4:1],,4,,5,5,3,3,
8qq1[4:1],,5,,4,4,7,7,
2-4[8:1],,5,6,7-1[8:1],,57,,2-5[8:1],,6,7,8p4[8:1]*v5[8:1],,,,
3-5[8:1],,6,,7-3[8:1],7,4,,2v5[8:1],,6,,7p3[8:1],7,4,,
2-5[8:1]/6-4[8:1],,,,3-8[8:1]/7-1[8:1],,,,
2h[4:1],,3,,6h[8:3],5,5,5,4/7b,,1/2b,,3/4b,1b/5,,7b/8,,5b/6,,1b/2,3b/8,,,,
6pp4[4:1],6,,4,2-5[8:1],,8,,
6pp4[4:1],6,,4,2-5[8:1],,8,,
6-3[8:1],,1-4[8:1],1,6-3[8:1],,1,,2V47[4:1],2,7,8,1-5[8:1],,1,,
2^4[8:1],,4,5,6v1[8:1]*p2[8:1],,,,7v5[8:1],,5,4,3^1[8:1]*p7[8:1],,,,
8V24[4:1],,4V68[4:1],,8V24[4:1],,4,,6h[4:1],,7h[4:1],,
{16}8,1,8,1,8,1,8,1,
{8}6pp4[4:1],6,,4,2-5[8:1],,8,,
6pp4[4:1],6,,4,2-5[8:1],,8,,
6-3[8:1],,1-4[8:1],1,6-3[8:1],,1,,2V47[4:1],2,7,8,1-5[8:1],,2/1,,
4-8[8:1],,54,,5-7[8:1],,54,,4-2[8:1]*-8[8:1],,4,,73,6,52,1,87,,,43,52,,,87,1-3[8:1]*-4[8:1]/6,,1-7[8:1]*-6[8:1],,1,,4h,,
3h[8:1],4,3h[8:1],2,3h[8:1],5,3h[8:1],1,3h[8:1],6,3h[8:1],8,3h[8:1],6h[8:1],4h[8:1],7h[8:1],5-3[8:1],,7,8-5[8:1],,1V37[4:1]/8,,4,,6,8,2,3h[4:1]
,,,,
6h[8:1],5,7h[8:1],8,6h[8:1],5,7h[8:1],8,6h[8:1],4,8h[8:1],2,6h[8:1],3h[8:1],5h[8:1],1h[8:1],4V68[8:3],,1,2,3,4,,7,1-5[8:1],1,6<4[8:3],6,2,,,,
2h[8:1],1,2h[8:1],3,2h[8:1],8,2h[8:1],4,2h[8:1],7,2h[8:1],5,2h[8:1],7h[8:1],1h[8:1],6h[8:1],8-2[8:1],,6,5-8[8:1],,4V26[4:1]/5,,1,,7,5,3,2h[4:1],,8,,
6h[8:1],5,7h[8:1],8,6h[8:1],4,8h[8:1],1,6h[8:1],4,1h[8:1],2,8h[8:1],3h[8:1],6h[8:1],4,
5b/7,,1b/2,,3b/4,2/5b,,7/8b,,5/6b,,1/2b,3/8b,,5b/6,,1/6b,,4/3b,,2/1b,4b/8,,6b/5,,8b/7,,4b/3,2b/5,,,,
6pp4[4:1],6,4,3,2-5[8:1],2,8b,,
6pp4[4:1],6,4,3,2-5[8:1],2,8b,,
6-3[8:1],,8-3[8:1],8,6-3[8:1],6,8,,2V47[4:1],2,7,8,1-4[8:1]*-6[8:1],,1b,,
2^5[8:1],,4,6,8^5[8:1],,5,3,1q5[8:1],1,7p3[8:1],7,2h[4:1],,4,6,
8V64[4:1],,4V28[4:1],,8V64[4:1],,4,,3h[4:1],,2h[4:1],,
{16}1b,8,1,8,2,7,2,7,
{8}3qq5[4:1],3,5,6,7-4[8:1],7,1b,,
3qq5[4:1],3,5,6,7-4[8:1],7,1b,,
3-6[8:1],,1-6[8:1],1,3-6[8:1],3,1,,7-5[8:1],7,1-3[8:1],1,8-4[8:1],,2/8,,
5V71[4:1],,1,3,5V37[4:1],,1,7,5-1[8:1]*-7[8:1],,5,,26,3,47,8,1b/2,,,5/6,4/7b,,,1/2,8V64[8:1]*-5[8:1]/3b,,8V24[8:1]*-3[8:1],,8,,5h,
{8},3h[2:1],,8,,4,4h[8:1],1,2h[8:1],
7h[2:1],,6,,2,2h[8:1],4,,
6h[2:1],,8,,4,4h[8:1],1,3,
8-5[8:1]/2v5[8:1],,,,4-1[8:1]/6v1[8:1],,,,
2h[2:1],,4,,8,8h[8:1],5,3,
6/1h[2:1],,3,,7,7h[8:1],4,,
2/5h[2:1],,8,,3,3h[8:1],1,8,
74,6,53,2,81,
7,7,7,
7h[2:1],,4,,8,8h[8:1],5,6h[8:1],
3h[2:1],,2,,6,6h[8:1],8,,
2h[2:1],,4,,8,8h[8:1],5,7,
4-1[8:1]/6v1[8:1],,,,8-5[8:1]/2v5[8:1],,,,
6h[2:1],,8,,4,4h[8:1],1,7,
2/5h[2:1],,7,,3,3h[8:1],8,,
6/1h[2:1],,4,,7,7h[8:1],5,4,
38,2,17,6,45,
{16}3,6,2,7,1,8,,,
{8}2h[8:1],3h[8:1],4h[8:1],7h[8:1],6h[8:1],5-1[8:1],
