&title=神様のいうとおり
&artist=いしわたり淳治&砂原良徳 + やくしまるえつこ
&first=0.02
&des=半角
&lv_5=12
&lv_6=12
&lv_7=藏
&inote_5=(112)
{1},
{8}Ch[4:3],,D2,E1,,E1,D8,,
{8}7-1[12:1]*-5[12:1],,,,3-1[12:1],3-5[12:1],,,
{8}Ch[4:3],,D6,E5,,E5,D4,,
{8}3V17[6:1]*-5[12:1],,,,E5,E3,E1,E7,
{8}Ch[4:3],,D8,E7,,E7,D6,,
{8}5-3[12:1]*-7[12:1],,,,1-7[12:1],1-3[12:1],,,
{8}Ch[4:3],,D4,E3,,E3,D2,,
{8}D1h[8:7],,D7,E6,B7,B3,E2,D3,
{8}1h[8:1]/5,3,3h[8:1],5,5V31[8:1],7h[16:1],7,,
{8}D7h[16:1],5,5,D4h[16:1],{16},,3,3,1v3[16:1]/5,,,,
{8}7h[8:1],5,5h[8:1],3,3V17[8:1],5h[16:1],5,,
{8}D3h[16:1],1,1,D8h[16:1],{16}E5,,B3,C,B7,,E1,,
{8}5h[8:1]/1,7,7h[8:1],1,1V75[8:1],3h[16:1],3,,
{8}D3h[16:1],5,5,D8h[16:1],{16},,7,7,5v7[16:1]/1,,5,,
{8}3h[8:1],1,1h[8:1],7,7V53[8:1],1h[16:1],1-6[32:3]*-4[32:3],1,
{8}1V75[8:1]*V35[8:1],,,,{16}E5,,B3,C,B7,,E1,,
{8}D7h[4:1]/1pp1[16:3],,,,5pp5[16:3],,,3qq8[16:7],
{8}D7h[4:1],,,7b,,,1-5[12:1],,
{8}D7h[4:1],,,7,3,,1-5[12:1],5,
{8}D7h[4:1],,3v5[32:3],7,{16},,1,1,5-8[12:1],,,,
{8}D3h[4:1]/5p4[16:3],,,,1q2[16:3],,,7qq4[16:7],
{8}D3h[4:1],,,3b,,,1<6[12:1],,
{8}D3h[4:1]/1-5[12:1],,,3,7,,5>2[12:1],1,
{8}Ch[8:3],,,{32}E1,E8,E7,E6,E5,E4,E3,E2,E1,E8,E7,E6,E5,E4,E3,E2,E1,,,,
{16}7bx,1,7,1,7,1,7,1,7,1,7,1,7,1,7,1,
{16}7x,3,7,3,7,3,7,3,7,3,7,3,7,3,7,3,
{16}5x,3,5,3,5,3,5,3,5,3,5,3,5,3,5,3,
{16}5x,1,5,1,5,1,5,1,5,1,5,1,5,1,5,1,
{16}7bx,3,7,3,7,3,7,3,7,5,7,5,7,5,7,5,
{16}1x,5,1,5,1,5,1,5,1,3,1,3,1,3,1,3,
{16}7x,3,7,3,7,3,7,3,7,1,7,1,7,1,7,1,
{16}5<4[8:5],5,,,D3,,E2,,B3,,B7,,E6,,D7,,
{16}7,5,3,1,7v1[16:1]*v5[16:1],,3-1[16:1],,,,3v5[16:1]*v1[16:1],,7-5[16:1],,,,
{16}1x,1x,3,3,5,5,7,7,1-3[16:1],,3-7[16:1],,5,,5,,
{16}3,1,7,5,3v1[16:1]*v5[16:1],,7-5[16:1],,,,7v1[16:1]*v5[16:1],,3-1[16:1],,,,
{16}5x,5x,7,7,1,1,3,3,5-7[16:1],,7-3[16:1],,3,,1,,
{16}1,7,5,3,1-7[16:1]*-3[16:1],,3v5[16:1],,,,5-7[16:1]*-3[16:1],,7v5[16:1],,,,
{16}1x,1x,3,3,5,5,7,7,1-5[16:1],,7-3[16:1],,1,,7,,
{16}5,3,1,7,5-7[16:1]*-3[16:1],,7v1[16:1],,,,1-7[16:1]*-3[16:1],,3v1[16:1],,,,
{16}5x,5x,7,7,1,1,3,3,5w1[16:1],,1w5[16:1],,,,,,
{16}Ch[4:1],,5,,7>2[12:1],,7,,3>5[6:1],3,,D5/A4/D4,,,,,
{1},,E
&inote_6=(112)
{1},
{8}Ch[4:3],,D2,E1,,E1,D8,,
{8}7-1[12:1]*-5[12:1],,,,3-1[12:1],3-5[12:1],,,
{8}Ch[4:3],,D6,E5,,E5,D4,,
{8}3V17[6:1]*-5[12:1],,,,E5,E3,E1,E7,
{8}Ch[4:3],,D8,E7,,E7,D6,,
{8}5-3[12:1]*-7[12:1],,,,1-7[12:1],1-3[12:1],,,
{8}Ch[4:3],,D4,E3,,E3,D2,,
{8}D1h[8:7],,D7,E6,B7,B3,E2,D3,
{8}1h[8:1]/5,3,3h[8:1],5,5V31[8:1],7h[16:1],7,,
{8}D7h[16:1],5,5,D4h[16:1],{16},,3,3,1v3[16:1]/5,,,,
{8}7h[8:1],5,5h[8:1],3,3V17[8:1],5h[16:1],5,,
{8}D3h[16:1],1,1,D8h[16:1],{16}E5,,B3,C,B7,,E1,,
{8}5h[8:1]/1,7,7h[8:1],1,1V75[8:1],3h[16:1],3,,
{8}D3h[16:1],5,5,D8h[16:1],{16},,7,7,5v7[16:1]/1,,5,,
{8}3h[8:1],1,1h[8:1],7,7V53[8:1],1h[16:1],1-6[32:3]*-4[32:3],1,
{8}1V75[8:1]*V35[8:1],,,,{16}E5,,B3,C,B7,,E1,,
{8}D7h[4:1]/1pp1[16:3],,,,5pp5[16:3],,,3qq8[16:7],
{8}D7h[4:1],,,7b,,,1-5[12:1],,
{8}D7h[4:1],,,7,3,,1-5[12:1],5,
{8}D7h[4:1],,3v5[32:3],7,{16},,1,1,5-8[12:1],,,,
{8}D3h[4:1]/5p4[16:3],,,,1q2[16:3],,,7qq4[16:7],
{8}D3h[4:1],,,3b,,,1<6[12:1],,
{8}D3h[4:1]/1-5[12:1],,,3,7,,5>2[12:1],1,
{8}Ch[8:3],,,{32}E1,E8,E7,E6,E5,E4,E3,E2,E1,E8,E7,E6,E5,E4,E3,E2,E1,,,,
{16}7b,1,7,1,7,3,7,3,7,5,7,5,7,5,7,5,
{16}1,3,1,3,1,5,1,5,1,7,1,7,1,7,1,7,
{16}3,5,3,5,3,7,3,7,3,1,3,1,3,1,3,1,
{16}5,7,5,7,5,1,5,1,5,3,5,3,5,3,5,3,
{16}7b,3,7,3,1,5,1,5,1,3,1,5,1,7,1,1,
{16}3,7,3,7,5,1,5,1,5,7,5,1,5,3,5,5,
{16}7,3,7,3,1,5,1,5,1,3,1,5,1,7,1,1,
{16}5<4[8:5],5,,,D3,,E2,,B3,,B7,,E6,,D7,,
{16}7,5,3,1,7v1[16:1]*-3[16:1],,5-3[16:1],,,,5v7[16:1]*v3[16:1],,7-5[16:1],,,,
{16}1,1,3,3,5,5,7,7,1-3[16:1],,3-7[16:1],,5,,5,,
{16}3,1,7,5,3v5[16:1]*-7[16:1],,1-7[16:1],,,,1v3[16:1]*v7[16:1],,3-1[16:1],,,,
{16}5,5,7,7,1,1,3,3,5-7[16:1],,7-3[16:1],,3,,1,,
{16}1,7,5,3,1-7[16:1]*-3[16:1],,3v5[16:1],,,,5-7[16:1]*-3[16:1],,7v5[16:1],,,,
{16}1,1,3,3,5,5,7,7,1-5[16:1],,7-3[16:1],,1,,7,,
{16}5,3,1,7,5-7[16:1]*-3[16:1],,7v1[16:1],,,,1-7[16:1]*-3[16:1],,3v1[16:1],,,,
{16}5,5,7,7,1,1,3,3,5w1[16:1],,1w5[16:1],,,,,,
{16}Ch[4:1],,5,,7>2[12:1],,7,,3>5[6:1],3,,D5/A4/D4,,,,,
{1},,E
&inote_7=(112)
{1},
{8}Ch[4:3],,D2,E1,,E1,D8,,
{8}7-1[8:1]*-5[8:1],,,,3-1[8:1],3-5[8:1],,,
{8}Ch[4:3],,D6,E5,,E5,D4,,
{8}3V17[4:1]*-5[8:1],,,,E5,E3,E1,E7,
{8}Ch[4:3],,D8,E7,,E7,D6,,
{8}5-3[8:1]*-7[8:1],,,,1-7[8:1],1-3[8:1],,,
{8}Ch[4:3],,D4,E3,,E3,D2,,
{8}D1h[8:7],,D7,E6,B7,B3,E2,D3,
{8}1h[8:1]/5,3,3h[8:1],5,5V31[8:1],7h[16:1],7,,
{8}D7h[16:1],5,5,D4h[16:1],{16},,3,3,1v3[16:1]/5,,,,
{8}7h[8:1],5,5h[8:1],3,3V17[8:1],5h[16:1],5,,
{8}D3h[16:1],1,1,D8h[16:1],{16}E5,,B3,C,B7,,E1,,
{8}5h[8:1]/1,7,7h[8:1],1,1V75[8:1],3h[16:1],3,,
{8}D3h[16:1],5,5,D8h[16:1],{16},,7,7,5v7[16:1]/1,,5,,
{8}3h[8:1],1,1h[8:1],7,7V53[8:1],1h[16:1],1-6[32:3]*-4[32:3],1,
{8}1V75[8:1]*V35[8:1],,,,{16}E5,,B3,C,B7,,E1,,
{8}D7h[4:1]/1v3-1[16:3],,,,5v7-5[16:3],,,3v1-3-8[16:7],
{8}D7h[4:1],,,7b,,,1-5[12:1],,
{8}D7h[4:1],,,7,3,,1-5[12:1],5,
{8}D7h[4:1],,3v5[32:3],7,{16},,1,1,5-8[12:1],,,,
{8}D3h[4:1]/5v6-4[16:3],,,,1v8-2[16:3],,,7v5-7-4[16:7],
{8}D3h[4:1],,,3b,,,1-7-5[8:1],,
{8}D3h[4:1]/1-5[12:1],,,3,7,,5-3-1[8:1],5,
{8}Ch[8:3],,,{32}E1,E8,E7,E6,E5,E4,E3,E2,E1,E8,E7,E6,E5,E4,E3,E2,E1,,,,
{16}7,1,7,1,7,3,7,3,7,5,7,5,7,5,7,5,
{16}1,3,1,3,1,5,1,5,1,7,1,7,1,7,1,7,
{16}3,5,3,5,3,7,3,7,3,1,3,1,3,1,3,1,
{16}5,7,5,7,5,1,5,1,5,3,5,3,5,3,5,3,
{16}7,3,7,3,1,5,1,5,7,1,7,3,7,5,7,7,
{16}1,5,1,5,3,7,3,7,1,3,1,5,1,7,1,1,
{16}3,7,3,7,5,1,5,1,3,5,3,7,3,1,3,3,
{16}5-7-1v8-2-4[8:5],5,,,D3,,E2,,B3,,B7,,E6,,D7,,
{16}7,5,3,1,7v1[16:1]*v5[16:1],,3-5[16:1],,,,3v5[16:1]*v1[16:1],,7-5[16:1],,,,
{16}1,1,3,3,5,5,7,7,1-3[16:1],,3-7[16:1],,5,,5,,
{16}3,1,7,5,3v5[16:1]*v1[16:1],,7-1[16:1],,,,7v1[16:1]*v5[16:1],,3-1[16:1],,,,
{16}5,5,7,7,1,1,3,3,5-7[16:1],,7-3[16:1],,3,,1,,
{16}1,7,5,3,1-7[16:1]*-3[16:1],,3v5[16:1],,,,5-7[16:1]*-3[16:1],,7v5[16:1],,,,
{16}1,1,3,3,5,5,7,7,1-5[16:1],,7-3[16:1],,1,,7,,
{16}5,3,1,7,5-7[16:1]*-3[16:1],,7v1[16:1],,,,1-7[16:1]*-3[16:1],,3v1[16:1],,,,
{16}5,5,7,7,1,1,3,3,5w1[16:1],,1w5[16:1],,,,,,
{16}Ch[4:1],,5,,7>2[12:1],,7,,3>5[6:1],3,,D5/A4/D4,,,,,
{1},,E
