&title=うたかたのせかいで
&artist=DJ Raisei/Setca./nayuta
&first=-0.1
&des_1=Asunasa
&des_2=Asunasa
&des_3=Asunasa
&des_4=Asunasa
&des_5=Asunasa
&lv_5=14+
&des_6=Asunasa
&des_7=Asunasa
&des=Asunasa
&inote_5=(216){4},{8},,,,,,,,,,,,,,,7bxqq1b[1:3]/3bxpp1b[1:3],
{1},,,{4},,,{16},,{64}7bx-5-3-1-7-4-2-8-6-4-1[4:13],
8bx-6-4-2-8-5-3-1-7-4-1b[64:207],{1},,,{4},,,{16},,,{32},{8}3b/6b,
,4,5,4,,4,
,4,,4,,3/5<1-7-5[8:9],,3,
,3,,2b,,2,,2,
,1/8,8/1,7/2,3/6,4/5,{4}4bh[16:3]/5bh[16:3],
{8},3,3,3,3,3/6h[8:1],3,3/6h[8:1],
3,7x,7,7,7,7/3xh[8:1],7,7/3xh[8:1],
7,4x/7x,{16},6/3,,,{8}5/2,3/6,{16},7/4,,,{8}6/3,
{16}2x,5x,2x,5x,2,5,3,4,5,6,4,5,6,7,
{32}5x,6x,7x,8x,1x,2x,3x,4x,5x,6bx-1-4v7V13[32:41],{1},{4},,{16},{8}7b,
,2>5[8:1],1,1,8-6[8:1],1,2,3-1[8:1],
5,5,6-4[8:1],2,1,1h[8:3],5,5h[8:1],
,3b/4b,2b/5b,7-4[8:1],1,2,3>8[8:1],6,
5,4-7[8:1],2,3,2,1>4[8:1],8,8h[8:1],
,2bx-6-4-8-4-6-2[4:7],,6bx,,7,{4}7h[8:1],
{8}6h[4:1],,,5h[4:1],,,{4}7h[4:1],
{8},6bx-2-4-8-4-2-6[2:3],,2b,,1,{4}1xh[8:1],
{8}2,3h[4:1],{64},,,,,,,,,,,,,,,,2h[4:1],,,,,,,,,,,,,,,,,3xh[64:15],{4},{16},{32},{8}1x-5[8:1],
,1>4[8:1]*<6[8:1],,1b,,7bx/2bx,
1bx/8bx,3bx-5[8:1]/8bx<6[8:1],,3>1[8:1]/8x-4[8:1],,3-5[8:1]/8x<6[8:1],,3/8x,
,7x/3x,{16}2,2,{8}8b-6[8:1],,3h[16:1]/8b-2[8:1],,5h[16:1]/8b-6[8:1],
,3h[16:1]/8b>3[8:1],,8b/5h[16:1],{32}D4,A4,D5,A5,{8}6x/2x,{16},7/3,,,{8}6/4,
7x-5[8:1],,3,3,3,3,3/8-6[8:1],
3,3/8-4[8:1],3,3/8-6[8:1],3,2/8,2,2,
2,2>5[8:1]/8<5[8:1],,,,7h[16:1]/2-4[8:1],7h[16:1],7h[16:1],
7h[16:1],7h[16:1],7h[16:1]/1-5[8:1],7h[16:1],7h[16:1],7h[16:1],7h[16:1]/2-4[8:1],7h[16:1],
7h[16:1],6b,,,{2}2h[8:9]/7b-2-5q1b[8:7],
{4},,,7b/3b,
{8},3b/4b,{4}3b/4b,{2}5b/6b-4-7-1-5[8:9],
{8},,,,,,,,,3b,
3,3,3/6h[4:1],3,3,3/6xh[8:1],
3,7b,7,7,7/3xh[8:1],7,7/3xh[8:1],7,
7,8x/2x,{16},8/2,,,{8}8/2,7/1,{16},7/1,,,{8}6/3,
{16}1,2,3,4,8,7,6,5,1,2,3,4,5,6,
7,8,{8}1bqq1b[16:19]/5bqq5[64:41],,,,,,,,,,,,,,7xh[4:1],
,2-5[8:1],8,2,8-4[8:1],3,8,2-4[8:1],
2,6-1[8:1],6,3-1[8:1],3,7-5-2[4:1],,2-4-6[16:3],
,1h[4:1],,2h[4:1],,7h[4:1],,3h[4:1],
,6<2v8-5[8:3],,,,,,3xh[4:1],
,7x-5[8:1],7,2v5[8:1],2,7-4[8:1],7,2-8[8:1],
2,5<1[4:1],,1>5[4:1],,5<1[4:1],,1q5[16:3],
,2,,3,,6h[4:1],,1-4-6[4:1],
,6-3-1[16:3],,,,7b,{16},7b,,,{8}7b-4[8:1],
2,7,2-5[0.4167##0.1389],8,2,7-4[8:1],7,
1>4[8:1],1,5<8b[8:1],5,,2-5-7[16:3],,7-4-1[16:3],
,8,8,7h[8:1],,2-8-5[4:1],,5-1<7[4:1],
,7<1[16:5],,,,,{4}6xh[8:3],
{8},3-8[8:1],4,6-1[8:1],5,3-8[8:1],4,5,
,2-4[8:1],,2-6[8:1]/8-3[8:1],,8<5[8:1]/2>5[8:1],,8/2,
,1x/2x,{16},1x/2x,,,{8}3,4/5,{16},4h[8:1]/5h[8:1],,,2,
3,4,5,8,7,6,5,{32}1,2,3,4,5,6,7,8,1,2,3,4,5,6,7,8,
{8}1,3x/5x,{16},,D2,D3,{8}D4,B6/B5/E6,E2/B1/B2,A8/D8/E8,
E4/B3/B4,E7/B7/B6,E3/A2/D3/A3,A5/D6/E6/A6,A1/B1/E1/E2,D8/A7/E8/B7,E4/D4/B3/A3/E3,Cfh[4:1],
,B2/E3/B3/B7/E7/B6,{16},,,,,,A7,A6,{8}A5,3h[8:1],
6h[8:1],2h[8:1],7h[8:1],1h[8:1],8h[8:1],3h[8:1],6h[8:1],4h[8:1],
5h[8:1],E3f/A2/B2/D3/B3/A3,{16},,,,,,1x,2x,8x,7x,2,3,
7,6,3,4,6,5,3,4,7,6,2,3,6,5,3,4,
7,6,{8}1bxw5[8:1],,1b,,8bw4[8:1],1/7,8b,
,2,2,7,7,2/1,2/1,3/8,
8/3,7-5-3-1-7[0.4167##1.1111],,,{2}6-4-2-8-6b[4:3],
{4},,,2bx,
{8},3/5,{4}3/5,{2}6/4>4[4:5]*-2-8-6-4b[4:5],
{8},,,,,,,,,3/5,
2,2,2,2/6,6,6,
6,6/4,4,4,4,4/5,5,5,
5,5/3x,{16},6x/4x,,,{8}7x/5x,6x/4x,{16},3/5,,,{8}2/4,
{16}3,5,3,5,4,6,4,6,4,6,{32}4,3x,2x,1x,8x,7x,6x,5x,
4x,B4,B3,B2,B1,B8,B7,B6,B5,B4,B3,B2,B1,E1,E8,E7,E6,E5,E4,E3,A1,A8,A7,A6,A5,A4,A3,A2,{8}1bx-5b[8:1],
{16},,1bx>8p6[16:117]/5bx<4p2b[16:117],Cf,{1},,,,,,,{4},,{8},3h[4:1],
,5,,5,4,5,,5,
,5,,5,,5,,5,
,5/3,,3,4,3,,3,
,3,{12}3/4,,3/4,,4/5,,{4}5h[16:3]/6h[16:3],
{8},2b,2,2,2,2/6xh[8:1],2,2/6xh[8:1],
2,7b,7,7,7/3xh[8:1],7,7/3xh[8:1],7,
7,8/1,{16},7/2,,,{8}7/2,3x/4x,{16},2/5,,,{8}3/6,
{16}1,2,3,4,8,7,6,5,{32}1,2,3,4,5,6,7,8,1,2,3,4,
5,6,7,8,{8}1bx-5pp6[16:67]*-5qq4[16:67],{1},,,,{4},,,{16},{32}8b/1b,
7/2,6/3,4>1<5[32:19]/5<8>4[32:19],{4},,,{16},,,{8}1>4[8:1],
1,7p3[8:1],7,1>4[8:1],1,8<5[8:1],
8,2-5[8:1],2,1-4[8:1],1,8-5[8:1],8,7-3[8:1],
{4}7<1[8:3],{16}E7,E6,E5,E4,E3,E2,,,,,{8}7xh[4:1],
,2q6[8:1],2,8<5[8:1],8,2q6[8:1],2,8-4[8:1],
,7-3[8:1],,6-2[8:1],,5-1[8:1],,4w8[8:1],
{32},,,,,B4,C,B8/B7/B1,{8}A8/D8/D1/A1/A7,2-4[8:1],2,7-1[8:1],7,2-4-8[4:1],
,8-6-3[8:1],,,,6b,{16},6b,,,{4}7b<4[8:1],
{32}D3,A2,D2,A1,{8}D1,{4}8xh[4:1],{8}6-4[8:1],6,
2-4[8:1],2,7-1[8:1],7,2-5[8:1],2,7-3[8:1],7,
2>5[8:1],2,{32}A6,D7,A7,D8,{8}A8,1-5[8:1],1,{16}2b,,,2b,
,,{8}3b,{4}4b>1[8:1],{32}8,7,6,5,8,7,6,5,{8}4b,2h[8:5],
,7,{4}7h[4:3],{16},,3,3,{4}3,
{8},8-6[8:1]/4>2[8:1],,8-4[8:1]/4-8[8:1],,4-2[8:1]/8-6[8:1],,8x/4x,
,3h[4:1],,6h[8:7],2,1,8,{16}7,5,
{32}4,3,2,1,8,7,5,4,{4}3>5[2:1],{8},,,,,4<3[8:5],
{16},,,,,,,,,,,,,,1b,
8b,{8}1b,8bxp4[8:1],7,8/2-5[8:1],1,2/7p3[8:1],
8,7/1q5[8:1],2,1/7<4[8:1],8,7/2-6[8:1],3,2/7-4[8:1],
8,3b,3b,3b,2/8<5[8:1],7,8/2>4[8:1],1,
2/7-3[8:1],6,7/1,1-4[8:1],1-5[8:1],1-6[8:1],,,,7-4[8:1],
{16}2,2,{8}7,2-4[8:1],8,7,6-8[8:1],
5,4b,3b,2b,2bx-5[8:1],{16}8,8,{8}2,7bx-4[8:1],
{16}1,1,{8}7,2h[8:1],7,,6,6,3h[4:1],
,5,,7h[4:1],{32},,,,1,2,{16}3h[8:1],{32},,6,5,{8}4h[8:1],
{16},,2bx,1bx,2bx,1bx,{8}4bx/5bx-8b[8:1],,5bx/1bx-4b[8:1],,1bx/6bx-3b[8:1],
,6bx,2bx,2bx,{16}4bx,3bx,4bx,3bx,{8}4bx,6bx/3bx,
7bx/2bx,{16}1bx,8bx,1bx,8bx,{8}1bx,2bx-5b[8:1],2bx,8bx-5b[8:1],8bx,
{24},,,2b,3b,4b,,,8b,7b,{12}6b,{24}1b,2b,3b,4b,5b,6b,7b,8b,1b,2bh[4:1],,,,,,{8}7<3[8:1],
,A7f,,2x>5>7[8:9],,6,
6,6,6,6,6,6,6,6,
6,5b<2-8-5[8:5],,3h,3h,3h,3h,3h,
3h,1x/2x,{16},1/2,{48},,,,,,{24}3,4,3,2/5,{48},,,,,,,{16}6/1,{48},,,,,,{24}7,
8,7,6/2,{48},,,,,,,{16}3/5,{48},,,,,,{24}3,4,3,5/2,{96},,,,,,,,,,,,,,{32}1/6,8,7,6,5,4,
3,2,1,8,{8}7bh[1:1],,,,,,,,Cf,
,,,,,E1,
E8,6x-2>5-1<6b[1:2],{1},,{4},,{8}E8,
E7,
E6,5x-2-7v4-1[4:7],,,,,,,,,,,,,,,,E4,
,B4,,B5,{16},,,E6,
,,,,3,4,5,Cf/6b-3b[16:39],
E
