&title=落日剑冢
&artist=Ligayb
&first=0.55
&lv_5=14
&des_5=青芽
&inote_5=
(136){4},,,,{24}1/2,
{6},{24}8,{8},2,{2}1b-5[8:1],
{24}6/4,{6},{24}7,{8},3,3bv1[8:1],{4},{16}6,7,
{24}8,{6},{24}1,{8},2,{4}A2/E3/D3/A3,B4,
{24}5/3,{6},{24}4,{8},6,{4}5h[4:1]/E7/A7/D7/A6,{8}6-8[8:1],{16}6,5,
{8}6-2[8:1],{24}4,,3,{8}6<8[8:1],4,{4}3/6>4[8:1],6/1>3[8:1],
{24}5/1<7[8:1],{6},{24}6,{32}1>3[8:1],{16},{32}6,5,4,{16},{8}4x/1<7[8:1],5,{24}1/6<2[8:1],5,{6}4,
{24}5,{6},{24}4,{8}2<8[8:1],5,6,6,8-2[16:1],5,
{4}5,{8}1-3[8:1]/5-7[8:1],4,{4}1-6[8:1]/5-2[8:1],5-1[8:1]/1-5[8:1],
{8}5/1,{4},,,{8}5,
6/7,{4},{8}1/2,{4},8-4-2[8:1]/4-8-2[8:1],
,B8/A5/B4/E7,E5/E1/B3/B7,3,
{8}4/5,3,5,{16}3,4,{4}2-7b[8:1],{8}2b,{16}5,5,
{8}1>4[8:1],6,{16}1<6[8:1],7,{8},{4}1>4[8:1],{32}1,8,7,6,{8},{32}4<7[8:1],
3,2,1,{8}5,{16}4-8[8:1],3,{8},{4}4,{8}7/1,6,
4>1[8:1],7,{16}4<7[8:1],6,{8},{4}4>1[8:1],{32}4,5,6,7,{8},{32}1<5[4:1],
2,3,4,{8},{4}5>1[4:1],1s5[8:1],{8}4,4,
{32}3<6[8:1],2,1,8,{8},1/3v8[8:1],2,5/3q6[4:1],5,{4}3/6p3[4:1],
{2}7h[4:3],{4}B2/B3/E3,{8}1>4[8:1],8,
{4}1-5[8:1],{32}1-3[8:1],8,7,6,{8},{16}1/5,{8},{16}6,{8}1>5[4:1],2,
{4}5<1[4:1],1,C,B4/B5,
{8}1h[4:1]/E5h[4:7],B4,,B5,1-3[8:1],1/B4,1-7[8:1],B5,
1,B4,1h[8:1],B5,8h[8:1],B4,{4}1h[8:1],
{8}1,2,5,6,7/1,2,8/2,7,
{16}1,8,1,8,2,7,2,7,{32}2,3,4,5,6,7,8,1,2,3,4,5,6,7,8,1,
{4}7/2,{16}2,8,3,1,5,7,4,8,2,7,3,5,
1,8,4,6,3,5,2,6,3,4,2,6,5,7,4,6,
{4}2x/5v8[8:1],3x/5v2[8:1],{8}5xv8[4:1],{16}6x,7x,{8}8xv5[4:1],7,
{2}7h[4:1],{8}6h[16:3],{16}4,4,{8}7h[16:3],{16}3,3,
2,3,4,5,7,6,5,4,1,2,3,4,8,7,6,5,
8,1,2,3,1,8,7,6,2,5,2,4,2,3,2,3,
{8}2z6[8:1],4,,4,{4}4<6[8:1],{8}7-3[8:1],7,
{4}7<5[8:1],7,{16}5,4,6,3,7,2,8,1,
{8}8/1-4[8:1],1,{4}1/2,{16}4<6[16:1],3,4>2[16:1],3,{4},{8}7h[16:15],
{16}1,2,{8}3,3,4,{16}4,3,{8}2,2,
{4}3x/8v5[8:1],2x/8v3[8:1],{8}8xv5[4:1],{16}7x,6x,{8}5xv8[4:1],6,
6h[4:1],{4},{8}1,{16}1,2,3,4,8,4,7,3,
4,3,5,2,8,1,7,8,{8}6h[16:5],{16}8v3[8:1],1,{8}2,8,
7,{16}7,6,{8}5,5,{16}5-1[8:1],4-8[8:1],6,3,{8},,,{16}8,
2,1,3,2,4,{8}5-7[8:1],{16}4/7-1[8:1],3,{8}2,2,
{4}2h[1:1],{8}1,{16}3,4,5,6,7,8,1,{32}3,4,5,6,7,8,
{1}1bw5b[8:5],
{4}1-4[8:1],{32}A8,E8,B7,B6,E6,A5,{16},,,,,{8}4,3,
3-8[8:1],{4},{8}5,{2}1-4[8:1],
{8}3-6[8:1],3,{4},{2}5h[4:1]/7-2[8:1],
{8}6h[4:1],{4},{8}7h[8:1],8h[8:1],1h[8:1],{4}2h[4:1],
{1}3q6[2:1],
{4}5V71[4:1],1V35[4:1],{8}5V72[4:1],4,{4}2qq7[2:1],
3h[2:1],{2},{8}2,2,
{4}2h[4:3],{8}B7/B6/E7,B5,B4,B3,{4}B4/B5/E5,
Ch[4:3]/1-7[8:1],1-3[8:1],1,{8}3-8[8:1],3,
{4}6h[1:1],{8}1,{32}2,3,{16}4,{4},{8}3,{32}3,4,{16}5,
{4},7b,,{8}7b/4,3,
{2}2h[4:3]/6-8[8:1],6-3[8:1],
{4}7-1[8:1],7-5[8:1],{32}2-6[8:1]/7-3[8:1],3,{16}4,{8},,,{16}7h[16:3],
3,,3,7,4,7,5,7,4,7,3,6,2,5,1,
8,1,4,3,8,1,6,5,8,1,7,8,6>2[4:1],{32}8,1,{8}2,
{4}6/2<6[4:1],6>2[4:1],{2}2<6[4:1],
{16}5,4,3,2,1,8,7,6,{32}5,4x,3x,2x,1x/5b,8x,7x,6x,5x/1b,4x,3x,2x,1x/5b,8x,7x,6x,
{8},{16}5,6,5,7,5,6,5,6,{24}4,6,7,{8}8,8,
{16}8,1,8,1,8,2,8,4,8,6,8,4,3,2,1,8,
{8}6h[12:1],{24}6,5,7,{16}4,8,3,1,{8}2h[12:1],{24}2,1,3,{16}8,4,7,5,
{8}6,6,{16}B6/E6,B4,B7,E3,{8}B5/B4/C,3,{16}3,6,3,1,
2-6[8:1],1,2,3,{8}2,5,{4}7h[32:7]/4h[32:7],{32}3/6,2/5,1/4,8/3,{8},{16}1-3[16:1],
4,1-7[16:1],5,{4}1-5[16:1],{8}6,6,{24}7/5,8/4,1/3,2,{12},{8}1/8h[4:1],
{64}1,2,3,4,{16},,,4,7,5,6,{64}5,4,3,2,{16},{8}6,6,
6/4,7,5/3,{32}3,4,{16}2,{32}1,2,3,4,5,6,7,8,1/5,2/6,3/7,4/8,5,6,7,8,
{8}1b,{16}8-6[8:1],1-5[8:1],{8},{16}8-4[8:1],1-3[8:1],{8},{16}8,1,{8},{16}1,1,
{8}8-5[8:5],{16}1,2,{8}3,3,4,{16}4,3,{8}2,1,
1,{16}2,6,{8}2,{16}2,7,{8}2,{16}2,8,{8}2,{16}2,1,
{8}2,3,7/2,5,{16}5-7[16:1],4-2[16:1],5-8[16:1],4-1[16:1],{4},{8}7x,
{16}7x,1,7,2,7,3,7-3[8:1],4,6,3,{8}7,{16}2,1,
{8}8,{16}8/5,1/6,{8}2/7,{16}8/3,7/2,6/1,5,8,6,8-4[8:1],7,8,6,
{8}8>3[8:1],{16}6,6,{8}8v3[8:1],7h[8:1],8,{16}7,7,{8}2,8/1,
{32}1/8,2,3,4,{8}8,{32}1/8,2,3,4,{8}8,{32}1,2,3,4,5,6,7,8,1,2/7,3/6,4/5,{8},{16}5,
4,5,3,5,2,5,1,{24}5,1,5,1,5,1,{32}5,6,7,8,1,2,3,4,
5/1,6/2,7/3,8/4,{48}5,6,7,8,1,2,3w7[8:1],4,5,6,7,8,1,2,{12}3,{2}B3/B2/B4/Cf,
E
