&title=ムリムリ進化論
&artist=ナナヲアカリ
&first=0.439
&des=Kurage
&lv_5=13
&inote_5=(181)
{4}E1,E4/E6,C/E3/E7,1x-5[8:1]/2x-6[8:1],
{8}
1b/2b,,7h[8:3],5-3[8:1],,,7-5[8:1],,
5,,3,3,24,,8x-4[8:1]/7x-3[8:1],,
8b/7b,,2h[8:3],4-6[8:1],,,2-4[8:1],,
4,,6,6,75,,8x-4[8:1]/1x-5[8:1],,
1b/8b,,36,3h[4:1]/6h[4:1],,,4qq1[4:2]/5pp8[4:2],,
,,,,,,{16}4,5,4,,
{8}3b-8b[8:1]/6b-1b[8:1],,,,4b>5b[8:6]/5b,,,Chf[8:7],
{1},
{4}3xb>8[8:1],5v2[8:1],4p7[8:1],6-1[8:1],3>8[8:1],5v2[8:1],{8}4,4,3x/6x,,
{4}7<4[8:1],1v6[8:1],8p3[8:1],2-5[8:1],7<4[8:1],{8}1,1h[4:1],{16},,E8,E7,E6,E2,E3,E4,
{4}6xb<1[8:1],4v7[8:1],5q2[8:1],3-8[8:1],6<1[8:1],4v7[8:1],{8}5,5,6x/3x,,
{4}2b>5[8:1],8v3[8:1],1q6[8:1],7-4[8:1],3b>6b[4:1],Cf,{8},1xb/8xb,1xb/8xb,1xb/8xb,
{4}2bqq7[8:5]/7b,{48}B4,E5,,,,,{8},,,{48}B5,E5,,,,,{8},
{4}6qq3b[8:5],{48}E8f,B7,,,,,{8},,,{48}E2,B2,,,,,{8},
{4}1-3[8:1]*-5[8:1],,1-5[8:1]*-7[8:1],,
{4}1pp1[8:3],6>3[8:1],,E1,
{16}E5,,3x,4x,3x,,6x,5x,6x,,3,4,2,,6,5,
{8}7bh[8:1],8bh[8:1],1bh[8:1],2bh[8:1],3x<6[8:1],,E1/B8/B1,,
{8}7-3b[8:1],,2-6b[8:1],,5-8b[8:1],,1b,,
{8}B3/E4,B7/E7,B2/E3,B8/E8,B1/E2,B5/E5,Cf,,
{8}7xb-1[8:1],,3-5[8:1],,7-3[8:1],7,1,,
{4}8V24[4:1],4V68[4:1],8,4,
{8}2-4[8:1],2,8-6[8:1],8,5-2[8:1],5-8[8:1],,,
{4}1>7[8:3],5<7[8:1],8w4[8:1],,
{12}2,1,2,7,8,7,2,1,3,7,8,6,
{12}2,4,3,7,5,6,4-1[8:1],5,4,{4}5,
{8}6b-1[8:1]/3b,6,2-5[8:1],2,8,8-4[8:1],,1b/8b,
{8},36,27,18,8b<5[8:1]/1b>4b[8:1],,,,
{8}3q5[8:3]/6,,,8,8-4[8:1],,8b,,
{8}6p4[8:3]/3,,,1,1-5[8:1],,1b,,
{4}3V15[4:1]/6,,6V84b[4:1],,
{4}A1/E2f/A2/B1/B2,A8/E8f/A7/B8/B7,E5f/B5/B4/A5/A4,,
{8}6-4[8:1],6,3-7[8:1],3,8-2[8:1],8,4,4,
{8}3-5[8:1],3,7-3[8:1],7,1-7[8:1],1,5,5,
{8}64,64,73,73,{16}2,8,2,8,2,8,2,8,
{4}1bw5[4:1],,,7-3[8:1],
{8}
37,1-5[8:1],,41,6-2[8:1],,36,1-5[8:1],,61,8-4[8:1],,3>8[8:1],3,6>3[8:1],6,
2,1-5[8:1],,17,8-4[8:1],,68,7-3[8:1],,2,1-5[8:1],8-6[8:1],1,8,3b,,
{8}45,{16}3,4,{8}2v5[8:1],2,1<6[8:1],1,4,4,
{8}3xV52[4:1]/5x,,6,8b-4[8:1],,1b/8b,,3<6b[8:1]/6,
{8}3,8b>3b[8:1],,78,5b<8b[8:1],,45,2b>5b[8:1],,12,7b,3,8-4[8:1],1-5[8:1],8x,1x,
{8}
6,8-4[8:1],,58,3-7[8:1],,63,8-4[8:1],,38,1-5[8:1],,6b<1b[8:1],6b,3b<6b[8:1],3b,
7,8-4[8:1],,82,1-5[8:1],,31,2-6[8:1],,7,8-4[8:1],1-3[8:1],8,1,6b,,
{8}45,{16}6,5,{8}7v4[8:1],7,8>3[8:1],8,5pp5[4:1],,
{4}5bqq5b[4:1],1b,Cf,{8},18,
{1}1bp8b[4:2]/8b<1[4:2],
{8}27,27,27,27,1b>4b[8:1]/8b<5[8:1],,{48}D1f,D2/D8,D3/D7,D4/D6,,,{8},
{8}
6xb/3xb,,5-8[8:1],5,2-6[8:1],2,1<6[8:1],1,
4V25[4:1],4,5-1[8:1],,6,,7x-3[8:1],8x-4[8:1],
7b,8b,6-2[8:1],6,1-7[8:1],1,5,5,
6-4[8:1]/4>1[8:1],,6/4pp5[16:3],,8b,,2x-6[8:1],1x-5[8:1],
2b,1b,4-1[8:1],4,7-3[8:1],7,8>3[8:1],8,
6qq5b[4:1],6,5<3b[32:9],,Cf,,4x-8[8:1],5x-1[8:1],
4b,5b,3<6[8:1],,8-3[8:1]*-5[8:1],7,8,,
{4}2b-6b[8:1],2b/1b-5[8:1],1b/8b-4b[8:1],8b/7b-3[8:1],
{8}5bpp5b[4:2]*qq5[4:2],,,Cf,{4},,
{8}45,45,45,45,3b/6b,,C,,
