&title=Angel Dust
&artist=LV.4
&first=0
&des=Maple.
&des_5=
&lv_5=4
&inote_5=(170){4},Ch[4:3],,,,4,
4,4,
4,5,5,5,
5,6,6,6,
6,7,7,7,
{8}7,7,7,E2,8,B2,8,B3,
8,E4,1,E8,1,B7,1,B6,
1,E6,2,{16}E7,B7,{8}3,{16}E6,B5,{8}4,{16}E3,B3,
{8}5,{16}E2,B1,{8}6,{16}E4,B4,{8}7,{16}E3,B3,{32}8b,7,6,5,{16}4,4,
3,3,2,2,{8}8bx/1bx,{16}5,4,{8}6b,{16}3,3,{8}5x,{16}4,5,
{8}3b,{16}6,6,{8}4x,{16}6,5,{8}7b,{16}4,4,{8}5x,{16}3,4,
{8}2b,{16}5,5,{8}4x,{16}7,5,{8}6b,{16}3,3,{8}5x,{16}2,4,
{8}3b,{16}6,6,{8}4x,{16}5,3,{8}7b,{16}4,6,{8}2x,{16}5,4,
{8}6b/3,6/3b,5b/4b,{16}3,5,{8}2bh[8:1],{16}6,4,5x,3,6,4,
{8}7bh[8:1],{16}2,4,3x,5,4,6,{8}3bh[8:1],{16}7,5,6x,4,5,3,
{8}6bh[8:1],{16}3,6,4,5,4,5,4,5,4,5,3,6,3,6,
3,6,3,6,2,7,2,7,1,8,1,8,{32}1b,2,3,4,{16}5,5,
6,6,7,7,{8}8bx/1bx>3[8:1],5,{16}6/1-4[8:1],6,,,7/1-5[8:1],,,8,
{8}1/8,6,{16}7,3,6,2,5,1,4,2,{8}5h[16:1],{16}3,6h[16:1],
,4,{8}7h[16:1],{4}1/8<6[8:1],{16}2/8-5[8:1],2,,,4/8-4[8:1],,,3,
{8}8/3,2,{16}3,5,2,6,1,7,8,6,{8}1h[8:1],{16}8,1,
{8}2/7b,7/2b,1bx/8bx<6[8:1],2,{16}3/8-5[8:1],3,,,4/8-4[8:1],,,3,
{8}3/8,2,{16}1,7,2,6,4,5,3,6,{8}4h[16:1],{16}7,3h[16:1],
,6,{8}2h[16:1],5/1>3[8:1],6,{16}7/1-4[8:1],7,,,8/1-5[8:1],,,7,
{8}1/7,6,{16}7,4,6,3,8,1,7,2,{32}8b,7,6,5,{16}4,4,
3,3,2,2,1bx/8bx,7,6,5,1,2,3,4,{8}6h[16:1],{16}3,7h[16:1],
,2,{8}8h[16:1],{16}1,7,1,7,2,6,2,6,3h,7,3,7h,
4,6,4h,6,3b,2,1,8,5,6,7,8,{8}2h[16:1],{16}7,3h[16:1],
,6,{8}4h[16:1],{16}5,3,5,3,6,2,6,2,7h,1,7,1,
{8}8b/2,1b/7,{16}8b/2b,3,4,5,8,7,6,5,{8}1h[16:1],{16}7,2h[16:1],
,6,{8}3h[16:1],{16}8,4,8,4,7,3,7,3,6h,4,6,4h,
5,3,6h,4,5,4,5,4,5,4,5,4,6,3,6,3,
6,3,6,3,2/5b,,,7/4b,,,{8}3bs7[0.1765##0.3529]/6bz2[0.1765##0.3529],{4}3b/6b,
{16},,1bx/8bx,1bx/8bx,{32}1bx>8[8:5]/8bx<1[8:5],E1,B8/B1,B7/B2,Cf,B6/B3,B5/B4,E5,{4},,,{16}1,
7,1,7,2,6,2,6,{8}3h[16:1],{16}5,4h[16:1],
,6,{8}5h[16:1],{16}7b,1,7,1,8,2,8,2,{8}7h[16:1],{16}5,6h[16:1],
,4,{8}5h[16:1],{16}3,8,3,8,1,6,1,6,{8}5/2h,{16}3,6h,
{8}2/7,8/1h,7b/2b,3/6,{16}2,4h[16:1],,3,{8}5h[16:1],{16}4,6h[16:1],
,5,{8}7h[16:1],{16}2,1,2,1,3,8,3,8,{8}4h[16:1],{16}6,3h[16:1],
,5,{8}2h[16:1],{16}4b,1,4,1,5,2,5,2,{8}4h[16:1],{16}3,5h[16:1],
,4,{8}6h[16:1],{16}5,7,4,8,3,1,2,8,{32}1b,2,3,4,{16}5,5,
6,6,7,7,{8}1bx/8bx,3/6,{16}7,5h[16:1],,6,{8}4h[16:1],{16}5,3h[16:1],
,4,{8}2h[16:1],{16}7,8,7,8,6,1,6,1,{8}5h[16:1],{16}3,6h[16:1],
,4,{8}7h[16:1],{16}5b,6,5,6,4,7,4,7,{8}3h[16:1],{16}5,4h[16:1],
,6,{8}5h[16:1],{16}7,4,7,4,6,3,6,3,{8}5h[16:1],{16}2,6h[16:1],
,3,7h,2,8bx,1,8,1,8,1,8,1,8,1,8,1,
8,1,8,1,7b,2,7,2,7,2,7,2,6b,3,6,3,
5,4,5,4,6bx,3,5b,4,6b,3,5b,4,7bx,2,6b,3,
8b,1,7b,2,8bx,8bx,6bx,6bx,4bx,4bx,2bx,2bx,{32}8bx,7,6,5,4,3,2,1,
8/4,5,6,7,8,1,2,3,{4}5bxw1b[8:61]/4bxw8[8:61],{1},,,,,,,{4},,,{8}2b,
B8,{16}2,B6,,,2/B7,,,B8,
{8}2,E7,{16}2,B5,,,2/E7,,,B6,{8}2,B5,
2/C,{16}5,4,{8}7,B1,{16}7,B2,,,7/B3,,,B4,
{8}7,E3,{16}7,E2,,,{4}7/B1,{16}7,5,,3,
{8}5,4,2b,2/7,{16}2,6,{8}2,4/3,{16}3,5,
{8}3,6/3,{16}7b,4,{8}7,7/2,{16}7,5,{8}6,3/6,
{16}4/6,3,2/6,1,{8}7b/8b,7/8,2b/1b,1/2,3b/4b,3/4,
5b/6b,5/6,{4}2/4b,7/5b,{32}8b/3,7,6,5,{16}4,4,
3,3,2,2,{8}1bx/8bx,6/3,{16}7-4[0.2647##0.0882],8q4[0.2647##0.0882],,7,{8}8,{16}7<5[0.2647##0.0882],1-5[0.2647##0.0882],
,7,{8}1,{16}8-5[0.2647##0.0882],1q5[0.2647##0.0882],,8,{8}1,{16}8p4[0.2647##0.0882],2-4[0.2647##0.0882],,8,{8}2,
1/7,{16}2/8,8/2,,,{8}1/8,{16}2-5[0.2647##0.0882],1p5[0.2647##0.0882],,2,{8}1,{16}2>4[0.2647##0.0882],8-4[0.2647##0.0882],
,2,{8}8,{16}1-4[0.2647##0.0882],8p4[0.2647##0.0882],,1,{8}8,{16}1q5[0.2647##0.0882],7-5[0.2647##0.0882],,1,{8}7,
{16}2/8,8/2,,7/1,,,{8}2/6,{16}7-5[0.2647##0.0882],1-5[0.2647##0.0882],,7,{8}1,{16}8-4[0.2647##0.0882],2-4[0.2647##0.0882],
,8,{8}2,{16}7-4[0.2647##0.0882],1>4[0.2647##0.0882],,7,{8}1,{16}8<5[0.2647##0.0882],2-5[0.2647##0.0882],,8,{8}2,
1/7,{16}2/8,8/2,,,{8}7/3,{16}1-5[0.2647##0.0882],7-5[0.2647##0.0882],,1,{8}7,{16}2-4[0.2647##0.0882],8-4[0.2647##0.0882],
,2,{8}8,{16}7b/3bx,B7/B3,,,2b/6bx,B2/B6,{32},,,,8,7,6,5,{16}4,4,
3,3,2,2,1bx/8bx,7x,{8}6x,{16}2-4[0.2647##0.0882],1-5[0.2647##0.0882],,2,{8}1,{16}2,2,
7-5[0.2647##0.0882],8-4[0.2647##0.0882],,7,{8}8,{16}7,7,1-5[0.2647##0.0882],8-4[0.2647##0.0882],,1,{8}8,2/7,
1/6,{16}3/8,3/8,,,{8}2/6,{16}7-4[0.2647##0.0882],1-4[0.2647##0.0882],,7,{8}1,{16}7,7,
,2-5[0.2647##0.0882],{8}8-5[0.2647##0.0882],{16}2,8,,2,{8}2,{16}8p4[0.2647##0.0882],1q5[0.2647##0.0882],,8,{8}1,
{16}3/6,3/6,,2/7,,,{8}1/8,{16}7-5[0.2647##0.0882],8-4[0.2647##0.0882],,7-3[0.2647##0.0882],{8}8-2[0.2647##0.0882],{16}7,8,
,7,{8}7,{16}2-4[0.2647##0.0882],1-5[0.2647##0.0882],,2-6[0.2647##0.0882],{8}1-7[0.2647##0.0882],{16}2,1,,2,{8}2,
8/1,{16}3/6,3/6,4bx,5x,4x,5x,3,6,3,6,2,7,2,7,
1,8,1,8,1bx/6bx,B1/B6,,,8bx/3bx,B8/B3,{32},,,,1b,2,3,4,{16}5,5,
6,6,7,7,{4}1bx/8bxp2p4p6p8[2:7],,,,E8/B7,
{8},B3/E3,,,{4}E2/B1,
E4/B4,,,,E6/B5,
,B8,
B5/B4,1bxpp3pp5pp7pp1b[1:3],{16},,,,,,,,,,B1/E1,
B5/B6,{4}E4/B3,{8},,,B5/E5,
,,{4}C,,,B2/E3,
B7/E7,{8},B5/E5/B4,{32}8,7,6,5,{16}4,4,
3,3,2,2,{4}8xz4[8:1]/1xs5[8:1],{32}8bx/1bx,E1/B8/B1/E5/B5/B4/Cf,,,,,,,{8}3/6,{16}8<5[0.2647##0.0882],2q6[0.2647##0.0882],
,8,{8}2,{16}7p3[0.2647##0.0882],1>4[0.2647##0.0882],,7,{8}1,{16}8-4[0.2647##0.0882],2-6[0.2647##0.0882],,8,{8}2,
3/7,{16}2/6,2/6,,,{8}4/8,{16}1>4[0.2647##0.0882],7p3[0.2647##0.0882],,1,{8}7,{16}2q6[0.2647##0.0882],8<5[0.2647##0.0882],
,2,{8}8,{16}1-7[0.2647##0.0882],6-2[0.2647##0.0882],,1,{8}6,{16}3-7[0.2647##0.0882],6-4[0.2647##0.0882],,3,{8}6,
{16}7x/2x,2x/7x,3x,6x,4bx,5,4h,5,4,5h,4,5,4h,5,4,5h,
4,5,4h,5,3bxh,6,3,6,2h,7,2,7h,{32}1bx,2,3,4,8h,7,6,5,
{16}3xh,6xh,2xh,7xh,1bx,8,3bh,6,2b,7h,4b,5,1bxh,8,3b,6h,
2b,7,4bh,5,1bx,1bx,3bx,3bx,5bx,5bx,7bx,7bx,{32}1bx,2,3,4,5,6,7,8,
1bx/5bx,4b,3b,2b,1b/8b,7b,6b,5b,{4}4bx<8V25q8[2:15]/8bx>4V61q4b[2:15],
E
