&title=Masquerade
&artist=ClariS
&first=1
&des=暗夜
&wholebpm=80
&des_5=暗夜
&lv_5=12
&inote_5=(80){4}
4qq1[4:2],,,8v6^7v5[4:2],,,
{8}
4>5[8:3],,,5,4>5[24:7],,1h[4:3],,,4,3,2,
3pp6[4:2],,,,,,1-3[12:1],1-7[12:1],1s5[4:1],,,,
6,6<5s1[8:5],,4,4z8[8:2],,,,,{16}2,4,3,5,4,6,
{8}
5^2[10:1],7-4[10:1],5x^8[10:1],7x,,1,2/1^6[10:1],3-8[10:1],1x^4[10:1],3x,,5,
6/5-8[10:1],7-4[10:1],5xV73[5:1],7x,,1,1>8[2:1],,,,,,
5V74[32:7],8-4[32:3],5xz1[5:1],8x,,3,4V25[32:7],1-5[32:3],4xs8[5:1],1x,,6,
5<3[8:3],,3,4,4,5,5-3-6-2-7-1[16:7],,,8h[8:3],,,
{16}
1,8,2,4,3,5,4,6,{24}5x,4x,3x,2x/8x,7x,6x,
{8}
5x/1b-4[10:1],,1xV72-5[40:14]/6,7,8/1x-6[10:1],,1x,,4^7[10:1],3^8[10:1],,3x,
5xqq5[4:1],,5pp5[4:1]/2,1,2,3,2xV48[4:1],5xV74[4:1],8x-3-1[4:1],,,,
4h[8:5],,2,2,3,5h[2:1],6,,7,7^2[4:1],,,6<3[4:1],,,5<4[32:9],,{16},1xpp6[16:5],{8}1xqq4[4:1],,,,,2b/6b,
8b-5[10:1]/4b,,8-6-1-4[40:14]/2,1,7/8x-5[10:1],,8x,,5-2[10:1],7-4[10:1],,7x,
1qq1[4:1],,1pp1[4:1]/6,5,6,7,6xV84[4:1],1xV38[4:1],4x-7-5[4:1],,,,
1h[8:5],,3,3,2,8,8V61[4:1],,,,,2-6[10:1],1b/3,,7-3[10:1],8b/6,,4s8[2:1],4b/5bz1[8:3],,,,,,
2h[4:1],,6,6h[4:1],,{16}4-8[2:1],4,Chf[8:5],,,,,,,,,,,,
1,4,2,4,3,3,6,5,7,5,8,8,2,1,3,1,4,4,8,5,7,5,6,6,
4,5,3,4,{24}2hx[2048:1],1hx[2048:1],2hx[2048:1],{16}8,8,5,7,5,6,4,5,3,4,2,2,
{64}3x,4x-8[64:17]b,5x-2[4:1],,,,,,,,,,,,,,,,,,,,,,,,,,,,,,,,,,,,,,{8},E
