&title=Straight into the lights
&artist=Cosmograph
&first=0
&des=Ryutasu
&clock_count=4
&lv_5=14+
&lv_6=14+?
&inote_5=(90){1},,{64}8b,71,62,35,
{16}4b,,2>5[8:1]/6,26,,8,8h[16:3],,,6,5,7,6,35,,24,3,4,5,,46,5,6,7h[16:7],,B6,B7,B8,B1,B2,B3,,
5,,7<4[8:1]/3,73,,1,1h[16:3],,,3,4,5>2[8:1],46,,7,5,6,5,4,,35,4,3,2x-6[16:1]/6x-2[16:1],,B4/A4,A8/B8,Cf,,,,
{8}7-1[16:1]/1,B6,5-7[16:1],B4,3-5[16:1],B2,1-3[16:1],B8,1/7-3[16:1],E4/E7,1-5[16:1]/7,E3/E8,1/5w1[16:1],A3/A7,5,6b/4b,
{16}35,2,46,7,34,1,56,8,35,1,46,7,2-4[16:1],8-6[16:1],1-5[16:1],7,2,8,1,7,
{32}3,3,4,2,6,6,5,7,{48}3,2,1,8,7,6,3,2,1,8,7,6,3pp6>7pp2[4:3],2,1,8,7,6,3,2,1,8,7,6,
{8}5xbh[8:7]/3b,,,,,,,1b,
{16}24,3,4,3q5[4:1]/5,,6,5,3,8h[16:3],,,,86,7,5h[16:1],6,
3-1[16:1]/4-8[16:1],,1-5[16:1]/8,,34,,5<3[4:1],,8>3[8:1],,4,5,6,7,8z4b[16:1],,
2h[16:1]/6h[16:1],,,,3h[16:1],7h[16:1],5h[8:3],,A3/B3,,A7/B7,,1h[16:1],3,4,
6h[16:5],A8/B8,,A4/B4,,3<6[16:1],27,18,,36,,4z8b[16:1]/5s1b[16:1],,2>4[16:1]/7<5[16:1],,,,
2x/7x,,1h[16:1]/8h[16:1],,7bp4[16:3]/2b,,56,3,1h[16:3],,,,13,4h[8:1],3h[16:1],,
6-8[16:1]/5-1[16:1],,8-4[16:1]/1,,65,,4>6[4:1],,1<6[8:1],,5,4,3,2,1q5[16:1]*p5[16:1],,
7h[16:1]/3h[16:1],,,,8h[16:1],6h[16:1],4h[8:3],,A6/B6,,B2/A2,,8h[16:1],7h[16:1],6h[16:1],5h[16:5],A3/B3,,A7/B7,,1>3[16:1]*<6[16:1],8,27,,,,E5,C,18,18,27,63,
{32}4,5,4,5,2,4,3,4,1,8,1,8,5,6,5,7,{48}2,3,4,5,6,7,{64}8z4b[16:1],1,2,3,4,5,6,7,{96}8,1,2,3,4,5,6,7,8,1,2,3,{8}4b,
{32}26,,3,3,4,,53,,46,,7,7,8,,16,,35,,2,2,1>6[8:1],,56,,7,7,8,6,{8}1b,
{16}7-1[16:1],7,,6/5V74[8:1],74,,34,2h[16:3]/5,,,4>1[16:1],3,56,7,8b/4,,
{32}73,,6,6,5,,46,,53,,2,2,1,,83,,64,,7,7,8V64[16:1],,43,,2,2,1,3,{8}8,
{16}3bh[16:3]/2b-6[16:1],,,1,2/5<8[16:1],,34,2>5[16:1],15,,7>2[16:1],26,,45,E5,,
4-8[16:9],,26,,84,,{32}5,6,7,,4-8b[16:1],3,2,,{16}4h[8:1],,Cf,,,,
{32}26,,3,3,4h[16:1],,1,,37,,6,6,5h[16:1],,8,,17,2,3,4,52,3,4,5,3/6<4V28V64[4:7],4,5,6,{8}7b/3b,
{1}Ch[4:3],Chf[4:3],
{16}2,2h[8:1],,4,4h[16:5],,,,,3h[8:1],,5,4,4,35,,
7,7h[8:1],,5,5h[16:5],,{48}E6,E7,E8,E1,E2,E3,{16}E4,6h[8:1],,4,5,5,64,,
1,,1,,1,,1,,28,3,45,6,17,2,35,46,{32}5,7,4,6,3,5,2,4,{48}1-5[16:1],2,3,8,7,6,3,4,2,6,5,7,
{2}1xb/8b,
{16}
3bh[8:1]/E5f,6,7,4bh[8:1]/E6f,6,7,5bh[4:1]/E7f,8v5<6-1[32:3],,,8,E2,E3,E4,E5,D7/E6,
3b,2/4h[8:1],,3b,6/5h[8:1],,7,1v6[16:1]*v4[16:1]/8,2b/3,4/6b,,1b,,37,37,5,
6bh[8:1]/E5f,3,2,5bh[8:1]/E4f,3,2,4bh[4:1]/E3f,1v4>2-8[32:3],,,1,E8,E7,E6,E5,D3/E4,
6b,7/5h[8:1],,6b,3/4h[8:1],,2,8-4[16:1]/1,7b/5,3b/4,,8b/1b,,65,7b/3b,,
28,,2/B6,B5,2,E8,E7/2,E6,3/E5,,3/D1,D8,3/D7,D6,D5/3,,
7/B1,B2,7/B3,B4,7,E2,E3/7,E4,6/E5,,6/D1,D2,6/D3,D4,D5f/6,,
7-4[16:1],4-8[16:1],8-3[16:1],3>5[8:1],7,,1x,1xh[8:1],,,1,8,17,6,54,3,28,56,17,34,
{32}6,6,5,7,3,3,4,2,5bh[8:1],,{96}A3,D3,A2,D2,A1,D1,A8,D8,A7,D7,A6,D6,A5,D5,A4,D4,,,{16}3x/7x,3x/7x,8b/2b,,
{32}15,,3,4,2>5[16:1],,8-4[16:1],1,8,,46,,2,,8,,
1,,3,4,2-8[16:1],,7-3[16:1],8,6,,35,,2,,7,,
1,2,3,4,5h[8:1]/6v1[16:1],7,8,1,2,3,4,5,2b/6x,,,,
3,3,4,2,6,6,5,7,1-5[16:1],8,2,7,3,6,4,,
15,,7,8,7,,15,,2,4,3,5,4,,56,,84,7,6,5,47,6,5,4,{16}3bh[4:1]/7bh[4:1],,,,,
37,8,16,25,3,46,3/7-3[16:1],8-4[16:1],1-5[16:1],2-6[16:1],7xb,8xb,1xb,2xb,,
{32}84,,6,5,7<4[16:1],,1-5[16:1],8,1,,53,,7,,1,,
8,,6,5,7-1[16:1],,2-6[16:1],1,3,,64,,7,,2,,
8,8,4,7,56,,1,1,5,2,34,,56,4,3,2,18,7,6,5,4h[8:1]/3v8[16:1],2,1,8,7,6,5,4,7b/3x,,,,
5,5h[16:1],{64}7,8,1,2,{32}3,,8,8h[16:1],{64}6,5,4,3,{16}2,
{32}15,6,7,8,61,7,8,1,72,8,1,2z6>4>4-8b[32:47],{16}7bh[96:11]/3bh[96:11],,{96}8x/4x,15,26,37,,,{16},
{8}Cf,,,,,,,,,,,,
5,5,4,2-4[16:1]/6-4[16:1],8,,{16}7,3,5h[8:3],,D4,,D7,,2,2,4,4h[16:5],D6,,D3,,5,5,6,,
3,,4>2b[16:1]/5<7b[16:1],,4z8[16:1]/5s1[16:1],,,,4x/5x,,2h[16:1]/7h[16:1],,
3bV51[16:1]/6b,,15,6,7h[8:1],,8xV64[16:1],,,
12,8x/3xh[8:3],,4x-8[16:1],,2x-6[16:1],,4V68-2[8:1],3,2x<4[4:1],,4,,4x,3,2,1,
8xz4[16:1]*s4[16:1],,2h[16:1]/6h[16:1],,,,1xv6[16:1],3h[16:3],5v2[16:1],,,,
7h[8:1],,1h[16:1],3h[16:1],4h[16:1],6h[16:5],A8/B8,,A4/B4,,
2-4<5-7[8:1],18,18,18,2/7<2[8:1],,Ch[16:1],,E3,E4,E6,E7,
{32}8,7,8,7,2,4,3,4,2,1,2,1,5,6,5,7,{48}3,2,1,8,7,6,35,2,1,8,7,6,45,3,2,1,8,7,46,3,2,1,8,7,
4,5,4,5,4,5,3,6,3,6,3,6,2-6b[16:1],7,2,7-3b[16:1],2,7,1,8,1,8,1,8,{16}2b`Cf,7b`Cf,
&inote_6=(90){1},,{64},84,73,62,
{16}1-3[180#8:1]/5,,8-4[16:1]*-4[16:1],8,,7-5[45#32:1]b,7,,,2,4-7[180#8:1],3,4,8,,1-4[45#32:1]b,2-6[180#8:1],8,2,,8,1-6[180#8:1],7,1b,,3V17[16:1]*V17[16:1],7V53[16:1]*V53[16:1],3>7[180#8:1],7<3[180#8:1],3,,,
8-6[180#8:1],,1-5[16:1]*-5[16:1],1,,2-4[45#32:1]b,2,,,5,4<6[16:1]*<6[16:1],6-4-1[8:1]*-4-1[8:1],7,2b/6,7,8,1,8,7,,25,3,7,8x-4[16:1]/4-8[45#32:1]b,,A7/E7,E3/A3,Cf`8,,,,
{8}2-4[45#32:1]b/4-2[16:1],B5,6-4[16:1]*-4[16:1],B7,6/2-6[180#8:1],2/7-4[16:1]*-4[16:1],1-4[16:1]*-4[16:1],7,7-3[16:1]*-3[16:1]/1,2-8[180#8:1]/4,2-6[16:1]*-6[16:1]/7,1/5-3[180#8:1],2/5-1[16:1]*-1[16:1],4w8[16:1]*w8[16:1]/7,3b/5b,4x,
{16}6/5-8[16:1]*-8[16:1],7-5[180#8:1],8/1-5[45#32:1]b,7/5-3[16:1]*-3[16:1],
2-5[180#8:1],,2/7,8-4[16:1]*-4[16:1],
,,1b-3[180#8:1],8-6[180#8:1],
1-5[180#8:1],8-4[180#8:1],1,8,
1,8,2,7,
{32}1,4-7[180#8:1],3,5,2,4,1,,{48}2>5qq2[45#96:13]b,3,4,5,6,7,1,2,3,5,6,7,1,2>7qq8[45#96:23]b,3,6,7,8,2,3,4,5,6,7,
{8}8xbh[8:7]/2bx,,,,,,,1b>4[45#32:1]b*-5[16:1],
{16}2,4-8[180#8:1],1,4q6[16:4],,7,1b,7,8h[16:3],,,,75,1,4/3h[16:1],7,
1-5[45#32:1]b/5-8[16:1],,3/7-3[16:1]*-3[16:1],,5/2-4[45#32:1]b,,73,,1/5,,2,7,2-6[180#8:1],6,2,,
7h[16:1]/4-7[45#32:1]b,,,,4-1[16:1]/3h[16:1],5h[16:1],2h[16:1],,4b,,2-4[16:1]*-4[16:1]/6,,1,4-8[180#8:1],2,
5,6-8[45#32:1]b,,37,,1-5[16:1]*-5[16:1]/8,2,34,,16,,1-5[16:1]*-5[16:1]/2,,3<6[16:1]*<6[16:1]`4-8[180#8:1],,,,
63,,1h[16:1]/8h[16:1],,7-5[180#8:1]`2-4[16:1]*-4[16:1],,7,4-1[180#8:1],8h[16:3]/2,,,,24,8,5/6h[16:1],2,
8-4[45#32:1]b/4-1[16:1],,6/2-6[16:1]*-6[16:1],,4/7-5[45#32:1]b,,26,,8/4,,7,2,7-3[180#8:1],3,7,,
2h[16:1]/5-2[45#32:1]b,,,,5-8[16:1]/6h[16:1],4h[16:1],7h[16:1],,5b,,7-5[16:1]*-5[16:1]/3,,87,5-1[180#8:1]/4,7,
2,3-1[45#32:1]b,,62,,8-4[16:1]/1-5[45#32:1]b,7,65,,83,,1,8-4[180#8:1],1-3[180#8:1],8,1,7b,
{32}1,8,1,8,5,6,5,7,3,4,2,4,1,8,1,8,{48}2,3,4,5,6,7,{64}8z4[16:1]*z4[16:1],1,2,3,4,5,6,7,{96}8,1,2,3,4,5,6,7,8,1,2,3,{8}4b,
{32}8/7-3[180#8:1],,6,5,7,,2,,6/4>1[180#8:1],,3,5x,4,,7,,6v1[180#8:1]/5,,7,8,6>3[16:1]*>3[16:1],,2,,8,3,7,4,{8}6b,
{16}7-4[16:1]*-4[16:1],5-1[180#8:1],,5<8[16:1]*<8[16:1],7,,2,3h[16:3]/5,,,4-8[16:1]*-8[16:1],2-5[180#8:1],13,2,4bx,,
{32}1/2-6[180#8:1],,3,4,2,,7,,3/5<8[180#8:1],,6,4x,5,,2,,3v8[180#8:1]/4,,2,1,3<6[16:1]*<6[16:1],,7,,1,6,2,5,{8}3b,
{16}1bh[16:3]/7b-3[16:1]*-5[45#32:1]b,,,5-1[45#32:1]b,7/4-8[16:1],,16,2-4[16:1],7/4,,1,25,,75,E5f,,
8-4[180#8:1]`1-5[16:1]*-5[16:1],,83,,1/6>3[45#32:1]b,,{32}3,4,2,,6>3[16:1],5,7,,{16}1h[8:1],,D5f,,,,
{32}2>5[180#8:1]/6,,3,1,2,,7,,4>1[180#8:1]/6,,3,5,4,,6,,8,7,8,7,1,6,1,6,5<5V31V75[4:7]*<5V31V75[4:7],6,7,8,{8}1b/5b,
{1}Ch[4:3],Chf[4:3],
{16}4<8[16:1]*<8[16:1],4h[8:1],,5,3h[16:5]/4,,,,,6h[8:1],,3-5[180#8:1],5-1[180#8:1],3,6,,
7>3[16:1]*>3[16:1],7h[8:1],,8,7/6h[16:5],,{48}E4,E5,E6,E7,E8,E1,{16}E2,3h[8:1],,6-4[180#8:1],4-8[180#8:1],6,3,,
1-3[45#32:1]b,,1-7[45#32:1]b,,1-4[45#32:1]b,,1-6[45#32:1]b,,
1bx,8,1bx,2,1bx,7,1bx,3,
{32}1-6[45#32:1]b,8,2,7,3,6,4,5,{48}2,3,4,5,6,7,1x-4[180#8:1],8x,1x,8x,1x,8x,
{2}1xb,
{16}
1-7-5[45#32:1]b,8-4[180#8:1],2v5[16:1]*v5[16:1],8,3,6v1[180#8:1],2,6,,,2-4[180#8:1],5-1[180#8:1],2-6[180#8:1],5,2,7,
8-4[16:1]*-4[16:1],5-1[180#8:1],,5,8,,2,7/8-5[16:1]*-5[16:1],65,3/4-1[180#8:1],,8/4,,2-5[180#8:1],7,2b,
8>2-4[45#32:1]b,1-5[180#8:1],7v4[16:1]*v4[16:1],1,6,3v8[180#8:1],7,3,,,7-5[180#8:1],4-8[180#8:1],7-3[180#8:1],4,7,2,
1-5[16:1]*-5[16:1],4-8[180#8:1],,4,1,,7,2/1v4[16:1]*v4[16:1],34,6/5v8[180#8:1],,1/5,,7<4[180#8:1],2-5[180#4:2],7b,
2b,,5-1[180#8:4],,1-6[16:4]*-6[16:4],,8,,6-1[16:4]*-1[16:4],,4,,1-4[16:4]*-4[16:4],,2,,
4-8[4:1]*-8[4:1],,6,,8<3[16:6]*<3[16:6],,5,,1,,B2,B1,B8,B7,B6,,
3/4-1[16:1]*-1[16:1],2-4[180#8:1],1/8-4[45#32:1]b,2/4-6[16:1]*-6[16:1],7-4[180#8:1],,7/2,1-5[16:1]*-5[16:1],,,8b-6[180#8:1],1-3[180#8:1],8-4[180#8:1],1-5[180#8:1],8,1,
8,12,34,6/5,
{64}8,,4,,7,,3,,6,,2,,5,,1,2,3,4,5,6,{96}8bx,D8,A7,D7,A6,D6,A5,D5,A4,D4,A3,D3,A2,D2,A1,D1,,,{64}4-8[180#8:1],5,6,7,8,1,2,3,4b/5b,,,,,,,,
{32}2-5[180#16:1]`6-1[32:1]*-1[32:1],,1,8,2,,7,4,6,,3-8[180#16:1],,7,,3,,
7-4[180#16:1],,6,5,7-3[32:1]*-3[32:1],,1-5[180#16:1],8,2,,1,,7,,,,
1-5[16:1]*-5[16:1],8,2,6,5,7,3,4,1b,6,7,8,1,2,3,4,
5,3,3,4,2,6,6,5,8-4[16:1]*-4[16:1],3,2,1,8,7,6,5,
8/4,,2,1,2,,35,,1,8,2,7,3,,6,7,8,15,6,7,84,5,6,7,{16}8bh[16:3]/4bh[16:3],,,,
84,3,2/6-1[45#32:1]b,1-5[16:1]*-5[16:1],7-4[45#32:1]b`7?-3[180#8:1],,7,1-7[16:1]*-7[16:1],,,6b,4-8[180#8:1],,2b,,,
{32}7-4[180#16:1]`3-8[32:1]*-8[32:1],,8,1,7,,2,5,3,,6-1[180#16:1],,2,,6,,
2-5[180#16:1],,3,4,2-6[32:1]*-6[32:1],,8-4[180#16:1],1,7,,8,,2,,,,
8-4[16:1]*-4[16:1],8,5,6,1,1,4,3,8b,3,2,1,8,7,6,5,
4-8[16:1]*-8[16:1],7,7,8,5,2,2,1,4,7,6,5,4,3,2,1,
3,3h[16:1],{64}8,7,6,5,{32}4,,2,2h[16:1],{64}4,5,6,7,{16}8,
{32}14,3,2,1,38,2,1,8,72,1,8,7s3<8>4-8b[32:47],{16}6bh[96:11]/2bh[96:11],,{96}1x/5x,48,37,62,,,{16},
{8}Cf,,,,,,,,,,,,
4-2[16:1]*-1[16:1],4-6[16:1]*-7[16:1]*-8[45#32:1]b,4,4,2h[16:1],,
{16}7,3,5-8[180#8:1],,5-2[180#8:1],,5,,7-4[16:1]*-4[16:1],7,1-5[16:1]*-5[16:1],1,7,,1,,8-4[16:1]*-4[16:1],8,8/3-1[180#8:1],,
83,,7/8-4[16:1]*-4[16:1],,5-1[180#8:1]`6>3[16:1]*>3[16:1],,,,6x/3x,,2h[16:1]/7h[16:1],,
6b-8[16:1]/3bV51[45#32:2]b,,25,3,64,,1-3[16:1]*-3[16:1],,3,6,8xh[8:1],,4x-8[180#8:1],,4/2x-4[45#32:1]b,,1-5[180#8:1],7,1,,8-4[45#32:1]b,,2-6[180#8:1],6,2,7,2v5[16:1]/8xv5[16:1],,8b/3h[16:1],,,,
43,2,1-6[16:1]*-6[16:1]`8-3[180#8:1],,82,,
17,,1/2-5[16:1]*-5[16:1],43,5/6v1[16:1]*v1[16:1],78,2b,,6,,
3pp8[16:3]*pp8[16:3],65,78,12,7pp4[16:3]*pp4[16:3]/3x,,Ch[16:1],,7xb,A3,A2,A1,
{32}8,7,8,7,5,6,5,6,2,4,3,4,8,7,1,7,{48}3,4,5,6,7,8,13,4,5,6,7,8,14,5,6,7,8,1,25,6,7,8,1,2,
7,3,7,3,7,3,
8,4,8,4,8,4,
1-5[16:1]*-5[16:1],5,1-5-2[16:1]*-5-8[16:1],5,1,5,
{56}2x,3x,4x,5x,6x,7x,8x,
{16}1b,E1f/E3f/E5f/E7f/B1f/B2f/B3f/B4f/B5f/B6f/B7f/B8f`Cf,
