&title=GASHATT
&artist=onoken
&first=-0.33
&des=Aster
&des_5=Aster
&lv_5=14
&inote_5=(175){4},,,,4b/5h[2:3],
4,4,4,
4,4,{8}3h[8:1],6,2h[8:1],7,
{4}1h[4:5],8,8,8,
8,{8}8h[8:1],2,7h[8:1],3,6h[8:1],4,
{4}4/5,3/5,2/5,1/5,
6/1,7/1,{8}1/8,2,8/1,7,
1/8,2,3/7,6,{16}4,5,4,5,4,5,4,5,
{4}4-6-3s7[2:1],{2},{4}8-4[8:1],
8b/1b-3[32:3],1/8,{8}7/1,{16}6,5,{8}6,4,
5-1[8:1],4-2[32:3],5,4,,7-5[32:3],8-4-2[16:3],7,
8,6,7-5[32:3],8-4[8:1],7,8,7,{16}6,5,
{8}6,4,3,4/2q5[8:3],,5,6,7,
{4}8-6[32:3],8/1-5[8:1],1/2,{16}3,4,{8}3,
2-5[8:1],6-1[8:1],2,6,,4,3,2,
8/1,7,1/8,2,1/7,6,8/2,3,
7/1,{16}6,5,{8}6,8/4>8[4:1],,7,6,5,
{4}4-7b[8:1],2/4,{8}8/3,{16}2,1,{8}2,8,
7-4[8:1],5-1[8:1],7,5,,2-4[32:3],1-5-7[16:3],2,
1,3,2-4[32:3],1-5[8:1],2,1,2,{16}3,4,
{8}3,5,6,5/7-5-1[4:1],,7,4,3,
2-5[8:1],8,2,6,7-4[8:1],1,7,2,
3-5-2[4:1],6-1[8:1],3,6,,8,7,6,
5/4,3,5/4,6,5/4,2,4/5,7,
5/4,{16}3,4,{8}2,8/1-4-2-7b[8:3],,7,6,5,
{1}4h[2:3],
{4},,{8}8-3[8:1],8,5-1[8:1],5,
{4}4,{8}3,2,{4}1/6h[4:1],{8}8-2-4>8[2:1],8,
{4}4,8,4,{8}5-7-1<5[2:1],5,
{4}1,5,1,{8}2>6[4:1],2,
{4}6<2[4:1],2>6[4:1],6<2[4:1],2,
6h[4:1],{8}5,4,{4}5/3h[4:1],{8}4-6-8<4[2:1],4,
{4}8,4,8,{8}1-3-5>1[2:1],1,
{4}5,1,5,{8}4<8[4:1],4,
{4}8>4[4:1],4<8[4:1],8>4[4:1],4,
8h[4:1],{8}5,6,{4}2/7h[4:1],{8}3-6[8:1],3,
{4}7-2b[8:1],3-6[8:1],7,{8}8-5[8:1],8,
{4}4-1b[8:1],8-5[8:1],4,{8}4,5,
6-8[32:3],6,{4}5,{8}3-1[32:3],3,{4}4,
6h[4:1],{8}5,4,3,5,3-8b[8:1],3,
{4}7-4[8:1],3-8[8:1],7,{8}5,5,
{16}3-1[32:3],{8},{16}4,{8}3,5,{16}6-8[32:3],{8},{16}5,{8}6,4,
{4}3pp5[4:1],5p8[4:1],8>4[4:1],6,
{8}7-4[8:1],8,7,2-4[32:3],1,2,,{16}6,5,
{8}6-8[32:3],2pp5[16:5],6,2,1,1,{4},{8}7-5[32:3],
1,7,3-1[32:3],4,3,,{16}8,1,
{8}8-4[8:1],2q5[16:5],8,2,6,6,{4},{8}7p3[8:1],
1,7,2-5[8:1],8,2,,{16}6,5,
{8}6-1[8:1],2pp5[16:5],6,2,8x,8,,{16}6-8[32:3],5,
{8}6h[8:1],{4},{16}3-1[32:3],4,{8}3h[8:1],{4},{16}6,5,
{8}6h[8:1],B1,3h[8:1],B7,5h[8:1],B2,4h[8:1],B6,
{4}1b>7[1:1],8,8,8,
8,8,{8}B7,B4,E6,E3,
{4}4<1[4:3],3,3,3,
3,{8}4-2[32:3],4,7-5[32:3],7,3,3,
2,2,2/C,2,8,8,8/C,8,
4,4,4/C,4,6,6,6/C,6,
{16}3,4,3,4,2,5,2,5,1,6,1,6,8,7,8,7,
{32}1,2,3,4,5,6,7,8,1,2,3,4,5,6,7,8,1,2,3,4,5,6,7,8,{4}1bx/Cf,
{8}4x/3x-1b[32:3],3x/4x,{4}C,{8}5x/6x-8b[32:3],6x/5x,{4}C,
{8}2-4[32:3],1-5[8:1],2b,1b,,3-8[8:1],8>5[4:1],3,
6,7,8-4[8:1],1-5[8:1],8,1,6,{16}7,8,
{8}7,1,2,8/3qq8[8:3],,7,6,5,
{4}4-7[8:1],3/4-1[8:1],4/5,{16}7,8,{8}7,
6-1[8:1],2-5[8:1],6,2,,8,7,6,
5/4,3,2/5,6,7/1,2,3/5,6,
7/4,{16}6,5,{8}6,8/4>8[4:1],,7,6,5,
{4}4-7b[8:1],2/4,{8}8/3,{16}2,1,{8}2,8,
7-4[8:1],5-1[8:1],7,5,,2-4[32:3],1-5-7[16:3],2,
1,3,2-4[32:3],1-5[8:1],2,1,2,{16}3,4,
{8}3,5,6,5/7-5v8[4:1],,7,4,3,
{16}2,1,{8}2,3,4/5,{16}7,8,{8}7,6,5/4,
3-5-2[4:1],6-1[8:1],3,6,,8,7,6,
5/4,2,5/4,7,5/3,1,4/6,8,
5/4,{16}3,4,{8}2,1/8,,2,7/3v8[8:1],6,
{64}3b/5p4>5[2:3],Cf,{1},{4},,,{16},,,{32},{1}1p8<1[2:3],
,{8}7/Cf,
7,7,7,7,7,7,7,
3/Cf,3,3,3,3,3,3,3,
{16}6b,5,{8}6,7,7,{16}3b,4,{8}3,2,2,
{16}8b,1,7,2,8,1,7,2,{24}8x,7,6,1x,2,3,7x,6,5,2x,3,4,
{4}Ch[8:3],,,{8}2b-4[32:3]/7b-5[32:3],8b/1b,
{4}2b/7b,{8}3/6h[8:1],1,3/6h[8:1],1,3/6h[8:1],1,
4/7,{16}6,5,{8}6,4,5/3,6,2b-4[32:3]/7b-5[32:3],8b/1b,
{4}2b/7b,{8}7/2h[8:1],5,7/2h[8:1],5,7/2h[8:1],5,
1/8,{16}3,4,{8}3,5,6/4,3,2b-4[32:3]/7b-5[32:3],8b/1b,
{4}2b/7b,{8}5/6h[8:1],1,4/3h[8:1],8,5/6h[8:1],1,
3/4,5,{16}3,6,2,7,1,8,1,8,1,8,1,8,
{4}1b-5[8:1],{8}1x/8x-4[8:1],7,8x/1x-5[8:1],2,8x/1x,7,
{4}6h[8:1],{32}4,5,6,7,8,1,2,3,4,5,6,7,8,1,2,3,{4}4/5,
{16}3,4,3,4,2,8,2,8,5,6,5,6,1,7,1,7,
1,2,3,4,1,8,7,6,8,1,2,3,7,6,5,4,
1,2,3,4,5/1,6,7,8,1/5,4,3,2,1/5,8,7,6,
{48}5/1b,2x,{24}3xh[8:1],{16},{48},8b,7x,{24}6xh[8:1],{16},{48},2b,3x,{8}4xh[8:1],{48}7b,6x,{24}5xh[8:1],{16},,{24},{8}3,2,
{16}1,8,2,7,1-5[8:1],8,2,7,{4}1,{8}6,5,
{16}3,4,2,8,1,7,5,6,1,8,2,7,3,6,4,5,
3,4,2,5,1-5b[8:1],6,8-4b[8:1],7,{8}1b,8b,{4},{48}8b/1b,
7/2,6/3,5/4,
