&title=Great Days
&artist=青木カレン; 長谷川大祐
&first=0.01
&des=AmieZz
&clock_count=4
&lv_5=13
&inote_5=(170){1},
{16}1-4[8:1]/6>4[8:1],,,,1/6,,,,
8-5[8:1]/3<5[8:1],,,,8/3,,,,
2-4[8:1],,,,2,,5,,7-5[8:1],,,,7,,4qq4[8:2],,,,4pp4[8:2],,
8h[4:1],,,,,,8-4[8:1],,,,8,,2-4[8:1],,,,2,,5,,7-5[8:1],,,,
7,,4qq3[8:1],,,,4,,5pp6[8:1],,,,5,,3h[8:1],,,,3,,
3-8[8:1],,,,3,,6,,7-4[8:1],,,,7,,3,,1-4[8:1],,2,,
8,,1-6[8:1],,8,,1,,2,,3,,4-2[8:1],,,,4,,5,,6-8[8:1],,,,
6,,4,,3v6[8:1],,5,,3,,8,,7,,1/7,,1/7h[1:1],,,,
1,,,,2,,,,3,,,,4-8[8:1],,,,3/4,,,,2,,2h[8:5],,,,,,,,,,
5pp4[8:4],,,,5,,3h[8:13],,,,,,,,,,
E8/E7/A7,,,,,,E5,,,,,,E1,,,,E6/E5/A5,,,,
4,,4,,5,,5,,4,,6/3,,5-7v8-2[8:3],,,,,,2p5[8:2],,,,,,,,,,
3qq5[8:3],,,,,,5-3[8:1],,,,,,,,,,7-3[8:1],,,,
7,,2-5[8:1],,,,2,,,,,,4h[8:1]/2,,,,
4qq1[8:3]*pp7[8:3],,4,,,,,,,,,,
2>5[8:1],,1,,8,,7v4[8:1],,,,
7/8-3[8:1],,,,2q5[8:2]/8,,,,2/5,,,,
7,,7h[4:1],,,,5v8[8:1],,,,5/6-2[8:1],,,,
3,,3-8[8:1],,,,3/5-8[8:1],,,,
1-4[8:1]*-6[8:1]/5,,,,1,,,,
3h[8:3]/7h[8:3],,,,,,,,,,
3/7-4[8:1],,4/6,,3/7,,3>7[4:1],,,,7<3[4:1],,,,
3>7[4:1],,,,7<1[8:3],,,,1,,1q5[8:1],,,,
6,,,,6-1[8:1],,,,6,,2-6[8:1],,,,
2pp5[8:4]*qq7[8:4],,,,2,,,,,,,,,,,,
4,,5,,4/5,,3qq4[8:3]/6,,,,4,,4pp3[8:4],,,,,,
8,,,,8h[8:1],,,,8,,8<5[8:1],,,,,,
4>2[8:1],,,,4,,,,4,,4V68[8:3],,,,,,,,,,
1V35[8:3],,,,1,,5>8[8:3],,,,,,7-4[8:1],,,,
7>3[4:1],,,,3<7[16:4],,,,7>2[16:3],,,,5,,,,
5pp7[8:1],,,,5,,1pp3[8:1],,,,1,,
5-1[8:1]*-1[8:1],,,,5,,,,2,,1s5[8:2]*s5[8:2],,,,
1/5-2[8:1]*-2[8:1],,,,7,,7-4[8:1],,,,
2>5b[8:1]/7,,,,2/8-4-8[8:2],,,,8,,,,
1h[8:1],,,,1,,1v4[8:1],,,,1/5>8[16:3],,,,
7h[4:1],,,,,,8,,5,,4/6,,3/5,,3-8[8:1],,,,3/4-8[8:1],,,,
1V75[8:3]*V35[8:3]/4,,1,,,,,,,,,,
2,,2,,3,4,3,,5,,7,8,7,,1/5,,2/4-7[8:1],,,,
1/4,,2-5[8:1],,1,,2,,6,,7<4[8:1]/8,,,,
7/8,,3<7[16:5],,,,6<1b[4:1],,,,1>5[16:4]*>5[16:4],,,,
5w1[16:9]*w1[16:9],,,,,,,,,,,,,,,,E2/E3/A2,,,,
E5/E6/A5,,,,
1/2,,3,,4/6<1[8:1],,5,,4/6,,3,,2,,2v5[8:1],,,,
2/6>1[16:5],,,,8h[4:1],,,,,,8<5[8:1],,,,
1/8,,1,,2,,3,,2<5[16:5],,3,,,,4,,4,,
4,,4x-7[8:1]/8xv3[8:1],,,,8/4,,,,
2/6,,1/7,,2/6,,3/5,,4-8[8:1],,4,,
2,,2-4[8:1],,,,2/7-1[8:1]*-5[8:1],,,,7-3[8:1],,,,
7,,,,5,,5-1[8:1],,,,5/7-3[8:1],,,,
2-5[8:1]/7,,,,2/6>6[8:4],,,,6,,2x,,1xq5[8:1],,,,1x,,,,
8,,7,,6,5,6,,4,,3/7,,2q6[8:1]/8,,1,,2,,7<4[8:1],,8,,7,,
3,,2,,1-5[8:1],,,,
1/6,,7-4[8:1],,8,,7q5[4:1],,,,
5<1[4:1],,,,1>5[16:3],,,,,,1,,1,,
2,,2,,3,,3,,1/2,,3,4,3,,5/6,,7-4[8:1],8,7,,
1-5[8:1]/7x,,,,
{4}1/8b<4v6[8:14]*>4z8[8:14],,,,,,,,,,,
E
