&title=【FULL】おどロボ
&artist=海茶
&first=0.62
&des=小white君
&lv_5=13+
&inote_5=(145)
{4}5h[4:1]/7,7,4h[4:1]/2,2,
{8}7h[4:1],5,2h[4:1],5,7h[4:1],,5,4,2h[8:1]/1h[8:1],,4/5,7h[4:1],8h[8:1],,4/5,2/7,,8x/E2,7x/E3,6x/E4,5x/Chf[4:1],
{8},,,4-8b[8:1]/3,,4>1[4:1]/5,,6,6,7,7,1/8qq5[2:1],1/8,2,3,4,
{8},,,4-8b[8:1]/3,,4>1[4:1]/5,,6,6,7,7,1/8,2,1-5[8:1]/8-4[8:1],7,1x/8x,
{8},,,5-1[8:1]/6,,5<8[4:1]/4,,3,3,2,2,8/1pp4[2:1],8/1,7,6,5,
{8},,,5-1[8:1]/6,,5<8[4:1]/4,,3,3,2,2,8<5[4:1]/1>4[4:1],,,,,
{16}4,5,3,6,2,7,1,,
{8}1,6,6,Ch[1:1],,E7,,E1,,E3,,B7/B2,,1x,1x,3,4,5,6,7,8,1,2,
{4}3-8[8:1],6-1[8:1],4-8[8:1],5-1[8:1],
{8}2,2,3,4,5h[2:1],B7,E1,B2,4>1b[8:1],,4<7[8:1],,4-8[8:1]*-8[8:1],,7x,7x,6,5,4,3,2,1,8,7,6x/5x,3x/4x,5x/7x,4x/2x,
{16}8-4[8:1],1,8,1,8b/Cf,,,,
{4}6>3[4:1],3v6[4:1],6>3[4:1],3v6[4:1],6-8b[8:1],4-2[8:1],6-8[8:1],4-2[8:1],5v6[8:1],4v1[8:1],5v7[8:1],4v2[8:1],
{4}5v8[8:1],4-1b[8:1],,6/3-7[8:1],6-1[8:1]/3,6/3v4[8:1],6pp8[8:1]/3,6/3,
{4}6-8[8:1],5-1[8:1],6-8[8:1],,4-2[8:1]/5-1[8:1],,5-7[8:1]/4-8[8:1],,
{16}4h[16:3],,,5h[16:3],,,4,,5,4,6,3,7,2,8,1,
{4}6>3[4:1],3v6[4:1],6>3[4:1],3v6[4:1],6-8b[8:1],4-2[8:1],6-8[8:1],4-2[8:1],5v8[8:1],4v3[8:1],5v7[8:1],4v2[8:1],
{4}5v6[8:1],4-8b[8:1],,6/3-7[8:1],6-1[8:1]/3,6/3v4[8:1],6pp8[8:1]/3,6/3,
{4}6-8[8:1],5-1[8:1],6-8[8:1],,4-2[8:1]/5-1[8:1],,5-7[8:1]/4-8[8:1],,
{16}5h[16:3],,,2h[16:3],,,8,,1,8,2,7,3x,6x,4x,5xh[16:5],
{8}4b,,B2,,,5h[8:1]/4,B2,,4h[4:1]/5,,B7,,,4h[8:1]/5,B7,,4h[4:1]/3,,B8,,,4h[8:1]/3,B8,,5h[4:1]/6,,B1,,,5h[8:1]/6,B1,,
{8}3x/4,,E2/5,,6,6/3x,7/E2,8,1/6x,2,3/E8,4,5,6x,E8,4,4h[4:1],,5h[4:1],,4,3,2,1,6b/5,,4/3b,,
{16}4b,5,4,5,3,6,2,7,
{8}1/E8,,E2,,E4,,E6,,E8,,E2,,E4,,E6,,E8/5x,,E2/4x,,E4/1x,,E6/8x<1[4:3],,E8/B7/B8,,E2/B2/B1,,E4/B3/B4,,E6/B5/B6,,
{8}7x-2[8:1],7x,1x-4[8:1],1x,3-6[8:1],,5-8[8:1],,
{4}7-2[8:1],1-4[8:1],3-6[8:1],5pp7[8:1],4qq2[8:1],5pp7[8:1],4qq2[8:1],5,
{8}6h[8:1],3h[8:1],7h[8:1],2h[8:1],
{16}8-4[8:1],1,8,1,8b/Cf,,,,
{8}6>3[4:1],6,3v6[4:1],3,6>3[4:1],,
{4}3v6[4:1],6-8b[8:1],4-2[8:1],6-8[8:1],4-2[8:1],5v6[8:1],4v1[8:1],5v7[8:1],4v2[8:1],
{4}5v8[8:1],4-1b[8:1],,3/6-2[8:1],3-8[8:1]/6,3/6v5[8:1],3qq1[8:1]/6,3/6,
{4}6-8[8:1],5-1[8:1],6-8[8:1],,4-2[8:1]/5-1[8:1],,5-7[8:1]/4-8[8:1],,
{16}4h[16:3],,,5h[16:3],,,4,,5,4,6,3,7,2,8,1,
{8}6>3[4:1],6,3v6[4:1],3,6>3[4:1],,
{8}3v6[4:1],,6-8b[8:1],,4-2[8:1],4,6-8[8:1],,4-2[8:1],,
{8}5v8[8:1],5,4v3[8:1],,5v7[8:1],,4v2[8:1],4,
{4}5v6[8:1],4-8b[8:1],,3/6-2[8:1],3-8[8:1]/6,3/6v5[8:1],3qq1[8:1]/6,3/6,
{4}6-8[8:1],5-1[8:1],6-8[8:1],,4-2[8:1]/5-1[8:1],,5-7[8:1]/4-8[8:1],,
{16}5h[16:3],,,2h[16:3],,,8,,1,8,2,7,3x,6x,4x,5x,
{4}4x>1[1:1],5,6,7,8<5[1:1],,1,2,4>8[1:1],3,7,6,5h[2:1],,
{8},4,5,4,6hx[4:1],,7hx[8:1],8x-4[8:1],,1hx[4:1],,2hx[8:3],,,3x,4x<6[8:1],,
{8}4/3,2,1,7,7,5,5,4,4,3>6[2:1],3,
{16}E7,,,E8,,,E1,,E2,,E3,,5,4,5,4,
{4}5<8[4:1],8>3[4:1],3<6[4:1],6qq1[2:1],,,2-6[4:1],6<1[4:1],1>5[4:1],5<1[4:1],1>5[4:1],5<4[2:1],
{8},,,,,5,6,7,8,1,8,2,8,3,8>4[4:1],,8,,8,,8,1,2,,3-1[8:1],,6-8[8:1],,3-1[8:1],,6-8[8:1],,6,3b,4b,5b,6-2b[8:1],,,,
{1}Cf/4>4[4:46],,,,,,
{1}8>4b[4:22],,,,,,
{4},
{2}C,C,C,
{8}C,,3,3,4,4,5,5,6,6,4b/5,3b/6,2b/7,1b/8,
{32}1b,2,3,4,5,6,7,8,1-5b[8:1],2,3,4,5,6,7,8,
{8}1b/Cf/6bxv3[8:1],,3<6[8:1]*-1b[8:1],,,,8,8,4-2[8:1],3,5-1[8:1],6,2>5b[8:1],,2b,
{16}1,8,
{8}7-3-5-8b[4:1],1>3[8:1],3,1,,,4h[8:1]/7,5,
{16}1bx/2bx,,,1x/2x,,,3x/8x,,5x/6x,,1,2,
{8}3/6-2[8:1],6,3-8[8:1]/6,3,3/6v5[8:1],6,3qq1[8:1]/6,,3/6,,
{8}6-8[8:1],7,5-1[8:1],4,6,,
{16}2/7,,4,5,4,,6,,
{8}4/5,8/2,5/4,1/7,5/4,2>8[8:3]/7,4b/5b,,,,
{32}1bx,2,3,4,5,6,7,8,1-5b[8:1],2,3,4,5,6,7,8,
{8}1b/Cf/6bxv3[8:1],,3<6[8:1]*-1b[8:1],,,,8,8,4-2[8:1],3,5-1[8:1],6,2>5b[8:1],,2b,
{16}1,8,
{8}7-4[8:1],3,,3,2,1,4h[8:1]/7,5,
{16}1b/2b,,,1/2,,,3/8,,5/6,,1,2,
{8}3/6-2[8:1],6,3-8[8:1]/6,3,3/6v5[8:1],6,3qq1[8:1]/6,,3/6,,
{8}6-8[8:1],7,5-1[8:1],4,6,,
{16}2/7,,4,5,4,,6,,
{8}4/5,8/2,5/4,1/7,5<4[2:1]/4,2/7,4b/5b,,,,
{16}E6,E7,E8,E1,E2,E3,E4,E5,
{4}5hx[4:1],,3hx[4:1]/7hx[4:1],,
{16}4/5,,,6,,,7,,1,8,1,8,2,7,3,6,
{4}4h[4:1],7,5h[4:1]/4,2,
{8}7h[4:1],5,2h[4:1],5,7h[4:1],,2,3,4-7[8:1]/5<7[8:1],,5/4,,5-2[8:1]/4>2[8:1],,
{4}5<1[4:1]/4,1>5[4:1],,
{16}8x,,
{24}7x,8x,7x,8x,,,1x,,,
{4}4h[4:1]/5,7,5h[4:1]/4,2,
{8}7h[4:1],5,2h[4:1],5,7h[4:1],,2,3,4h[8:1]/5,7,5h[8:1]/4,2>7[4:1],,,,8x,,2,
{8}2,3,4-8[8:1],,8<8[4:7]*>8[4:7],,8b,
