&title=輪廻玲々
&artist=suzu
&first=0.033
&des=The END and The REBIRTH
&lv_5=14 .8
&des_5=The END and The REBIRTH
&inote_5=
(188){4},{8},,,,,,7/2,
{24}8/1,7/2,6/3,{8}4/5,B7/E7/B6/B2/E3/B3,B8/E1/B1,B4/B5/E5,{4}Cfh[4:1],
{1}E1/B5/B4/B2/B7,
{8}6h[1:1],,,,,,,E5,
3h[1:1],,,,,,,E5,
Ch[4:15],{16},,,,,,,,,,,,B8,B7,
{1}7xh[4:3],
{8}1h[16:11],{16},,,,,,,,,,,,B3,E3,
{1}2xh[4:3],
{16}E3,E4,E5,E8,E7,E6,E2,E3,E4,E7,E6,E5,{24}E1,E2,E3,E4,E5,E6,
{4}E7/E8f,{8}3/5,6,7/2>5[32:3],3,{24}4/2,,,,,,
{4}2b/7b,{8}6/4,3,2/7<4[32:3],6,{4}5/7,
Cf,{8}2/8,7,6/3>8[32:3],2,{4}1/3,
4b/5b,{8}7/1,2,3/6>4[16:1],7,{4}8/6,
{16}1,8,1,8,{8}7b/2b,{32}E8/B8/B1/E2,B7/B2,Cf,B6/B3,{4}E6/E4,8b/3b,
{16}6,5,7,4,6,5,7,4,8,7,6,5,8,1,{8}2,
{16}3,4,2,5,3,4,2,5,1,2,3,4,1,8,{8}7,
{16}3/4,5,6,7,8/1,2,3,4,{32}7,6,5,4,3,2,1,8,{4}Cf,
{8}2bh[4:3]/1b>1b[4:11],,,,,,,8h[8:5],
,,,,,3xh[8:1],,3xh[8:7],
,,,,,,,C,
,,{4}A6,{8}A3,{16},,,,8,1,
{8}2bh[4:3]/7b<7[4:11],,,,,,,4xh[8:1],
,4xh[8:1],,4xh[4:1],{16},,,,3x,4x,{8}5xh[8:7],
,,,,,,,C,
,,E7,E6,E4,E3,,,1-5[32:3],
2,7-3[32:3],6,1-6[32:3],2-5-3[4:1],1,2,
8,7,6-8[32:3],2,6x/3x-7[32:3],4x-8[32:3],3,4,
,2,7/1v4[32:3],2/8v5[32:3],1-3[32:3],8-6[32:3],1,8,
,4,7-4[32:3],2-5[32:3],7-1[32:3],2,7,{16}2,3,
{8}4>5[8:5],,,,,,,8<1[8:5],
,,,,,,,C,
,E6,E3,E4,A8,A7,A2,A3,
{16}E6,B6,B7,E8,E4,B4,B5,E6,E2,B2,B3,E4,E8,B8,B1,E2,
{8}5x,5,4/7,7/4,{16}5,6,5,6,{8}5,{32}E8,B7,,,{8}2,
2,5/4,5/4,1h[16:1],1h[16:1],2h[16:1],2h[16:1],
4/3,5,6,2,{16}7,6,5,4,B1,B2,B3,B4,
B5,B6,B7,B8,5,6,7,8,1,2,3,4,1,2,3,4,
{8}5x/6x,6/5,1,1,{16}4,3,4,3,{8}4,{32}E3,B3,,,{8}6,
6,3/4,3/4,1h[16:1],1h[16:1],7h[16:1],7h[16:1],
5/6,4,3,7,{16}2,3,4,5,B8,B7,B6,B5,
B4,B3,B2,B1,4,3,2,1,8,7,6,5,8,7,6,5,
{8}4/2,4/2,3/1,3/1,{16}1,2,3,4,2,3,4,5,
{8}1,8/2,{16}8,7,6,5,7,6,5,4,8,7,6,5,
1,2,3,4,2,3,4,5,3,4,5,6,4,5,6,7,
5,6,7,8,1,2,3,4,8,7,6,5,4,3,2,1,
{8}8/3,8/3,2,3/7,2,3/6,1,2/5,
1/6,1/6,7,6/2,7,6/3,8,7/4,
6/3,6/3,7,6/5,2,3/4,5/6-1[32:3],7,
2x/6x,3-8[32:3],4,7x/3x,6,5,{16}1-5[8:1],5,3,7,
{32}1bV35V71[8:29],Cf,{1},,,{4},,,{16},,,{8}7h[8:7],
,,,,,,5h[1:1],
,,,,,,,3h[1:1],
,,,,,,,1h[8:7],
,,{4}E7,C,E3,
{8}2bpp4pp6[4:9],,,E8,,E1,,E2,
,,,,8,7,6,5h[8:7],
,,,,,,3,4/5,
,,{4}7/6,8/1,2/3,
{8}6/5,7,3/4,2,{16}4,5,{8}4,3/6,2/7,
{16}2,4,3,4,2,5,4,5,2,6,5,6,{8}3xv8[32:3],6x,
7h[1:1],{32}E8,B7,B6,B5,{8}E5,{32}E2,B2,B3,B4,{8}E5,{32}E1,E8,E7,E6,{8}E5,{32}E1,E2,E3,E4,
{4}E5,6/3,{16}7/2,7/2,,1s5>1[16:29]/8z4<8[16:29],,,{8}6/3,
{32}1b/8b,7x/2x,6x/3x,5x/4x,{1},{4},,,{16},,4,
5,4,5,3,6,3,6,2,7,2,7,1,8,2,7,
{24}1x,2,3,8x,7,6,2x,3,4,7x,6,5,{32}2,3,4,5,6,7,8,1,{4}6b/2b,
{8}1bh[4:1]/8bh[4:1],{32},,,,,,,,7/E3,B3,B4,E5,,,,,2/E7,B6,B5,E5,{96},,,,,,,,,,,,{24}8/1,7/2,6/3,
{4}4h[4:1]/5h[8:1],{16}7,6,5,4,8,7,6,5,{8}4/7,1/2>4[32:3],
,8,7,6,{16}4,4,{8}5,2/1,4/5h[4:1],
{16},,3x,5,7x,5,8x,5,1,6,2,7,{8}8/4,5/6,
1/8xh[8:3],{24},,,,,,1x,2x,3x,{8}4xh[8:1],{24}2x,3x,4x,{8}5x,2b/8b-4[32:3],
,8,2,3/5,{16}6,6,{8}8,7/1,6,
8,{24}8x,7x,6x,{8}5xh[8:1],{24}7x,6x,5x,{8}4x,7b/1b-5[32:3],,1,
,7,{4}6/4,{16}3,6,4,5,{4}2b/7b,
{16}2x,3,4,2x,3,4,1x,2,3,1x,2,3,1x,2,3,4,
8/5x,7,6,5,1x,4,{8}1,2/5,{16}5,4,{8}6/3x,7x,
5/1,{16}2,4,3,5,4,6,5,6,7,6,8,6,1,7,
2,6,3,5,4,5,3,6,{8}7x/2x,{16}1,8,{8}1,6b/3b,
4/7x,{16}6,5,{8}6,5/2x,{16}3,4,3,7,3x,5,3,8,
4,7,5,6,2,4,{8}3,6b/4b,{16}3,2b/4b,,7,{8}8b/6b,
{16}2,1,{64}2bx,E3,B3,B4,{16}E5f,7,8,{64}7bx,E7,B6,B5,{16}E5f,2,1,{64}2bx,E3,B3,B4,{16}E5f,7,8,{64}7bx,E7,B6,B5,{16}E5f,
2x,1,2,1,4x,5,3,6,4,5,2,7,{32}1xh,2,3,4,5,6,7,8xz4[32:3],
{4}1xs5[32:3],8b/1b,{16}2bx,3x,6bxh,7xh,3bx,4x,5bxh,6xh,
1xh[8:7]/7bxh,6x,5x,4x,3x,4x,5x,6x,7x,6x,5x,4x,3x,4x,5x,6x,
7xh[8:1]/2bxh,3,4x,5,6x/8,5,4x,3,2x/7h[8:1],3,4x,5,6x/8,5,4x,3,
2x,1,2,1,{8}4b,{16}7x,8,7,8,{8}5b,{4}3bx/6bx,
{16}6x/3bxh,2,6x/1xh,8,7bx/5x,8,5x/1xh,2,3bx/6x,2,6x/1xh,8,7bx/5x,8,{8}1,
{16}3x/6bxh,7,3x/8xh,1,2bx/4x,1,4x/8xh,7,6bx/3x,7,3x/8xh,1,2bx/4x,1,{8}8,
{24}3b,2,1,8,7,6,5,4,3,6b,7,8,1,2,3,4,5,6,1b,2,3,4,5,6,
7,8,1,5b,4,3,2,1,8,7,6,5,3b,4,5,6,7,8,1,2,3,4,5,6,
{4}7xw3[32:3],{32}7,B7,Cf,B4/B3/B2,,,,,,,,,,,,,{4}7b/2b,
{16}7x,4,5,4,6,3,4,3,5h[8:1],2,2x,4h[8:1],1,1,{8}5x,
{16}2x,5,4,5,3,6,5,6,4h[8:1],7,7x,5h[8:1],8,8,{8}4x,
{16}7
||这是一个标记~
,5,6,4,5,3,4,2,5,1,{8}6,{4}7b/2b,
6h[8:3],{8}5,3h[4:1],,4,{4}5/2,
2h[8:3],{8}1,7h[4:1],,8,{4}1/6,
{8}6/B2/E3/B3,{16}6,1,{8}6,2/B7/E8/B8,{16}2,5,{8}2,8/2,{16}1,1,
1h[8:1],{32},,,,8/2,7/3,6/4,5,,,{8}8b/2b,{32}2,3x,4x,5x,8x,7x,6x,5x,{4}1b,
{16}1b/5h,2/6,3/7,4/8,5,6,8bxh,7,6,4,3,2,8bxh,7,6,5,
1bxh,2,3,4,5,6,8bxh,7,6,5,4,3,{32}1bx-5[32:3],2,3,4,5,6,7,8,
5p4[8:11]/1p8[4:15],Cf,{1},{4},,,{16},,,{8}E3,
E4,E7,E6,B2,A3,B7,A6,
A5,A4,B3,B4,B5,B6,E3,C,
E
