&title=海神
&artist=兎々
&first=0.04
&des=After Legend of Wadatsumi ~ Respect for 2018 ver.
&lv_5=14
&inote_5=(159)
{4},,,
{24},,,,7,6,
{4}5h[4:3],,,{8}4,3,
{4}2h[4:3],,,{8}4,5,
{4}6h[4:2],,2,3,5/4h[4:3],,,{8}5,4,
{4}36,8,1,{16},,2,3,
{12}4/5h[128:1],,,,,5h[128:1],{8},{48},,,,,5h[128:1],{4},{48},5h[128:1],,,,,{48},,,,,{96},5h[128:1],{16},,,{96},5h[128:1],,,,,{8},{96},5h[128:1],,,,,,,,,,,{16},{96}5h[128:1],,,,,,{8},{96},,5h[128:1],,,,,,,,,,{8},{96},,,,5h[128:1],,,,,,,,{8},,5h[128:1],,,
{16}45,,3,4,,4,2,2h[8:1],,4,3,4h[8:1],,3,,5,
1,,1h[8:1],,7,7,8,6h[8:1],,5,6,3h[8:1],,7,,4,
{16}54,,6,5,,5,7,7h[8:1],,5,6,5h[8:1],,6,,4,
8,,8h[8:1],,2,2,1,3h[8:1],,4,3,5,4,6,5,,
{16}45,,3,4,,4,2,2h[8:1],,4,3,4h[8:1],,3,,5,
1,,1h[8:1],,7,7,8,6h[8:1],,5,6,3h[8:1],,7,,4,
{16}45,,6,5,7h[128:1],5,6,,45,,3,4,2h[128:1],4,3,,
7,5,6,5,8,4,8,4,1,2,1,3,6,2,8,4,
{4},,{8}3,3h[8:1],{16}1,8,7,6,
{8}35,2h[8:1],{16}4,4,3,5,{8}1-3[32:3],2,7-5[32:3],6,
4,{16}3,4,3h[8:1],,5,4,7-3[8:1],5,6,5,{8}7,,
24,1h[8:1],{16}5,5,3,4,{8}2-8[32:3],1,4-6[32:3],5,
1,{16}8,7,8h[8:1],,5,1,4,2,4,3,5,4,5h[128:1],,
{8}64,7h[8:1],{16}5,5,6,4,{8}8-6[32:3],7,2-4[32:3],3,
5,{16}6,5,6h[8:1],,4,5,2-6[8:1],4,3,4,{8}2,,
75,8h[8:1],{16}4,4,6,5,{8}7-1[32:3],8,5-3[32:3],4,
{4}8bpp3[8:3]*qq5[8:3],,,6b/2b,
{8}45,2h[8:1],{16}4,4,3,6,{8}5-1[8:1],8<5[8:1],8>3[8:1],8-4[8:1],
,,3h[8:1],{16}6,5,7-3[8:1],4,5,3,{8}7,,
{8}42,1h[8:1],{16}4,4,3,5,{8}2-8[32:3],6-4[32:3],2-6[8:1],6-2[8:1],
,5,5h[8:1],{16}3,4,1,5,3,7,4,5,4h[128:1],,
{8}36,7h[8:1],{16}5,5,6,3,{8}4-8[8:1],1>4[8:1],1<6[8:1],1-5[8:1],
,,6h[8:1],{16}3,4,2-6[8:1],5,4,6,{8}2,,
8-5[8:1]/1,7,4-1[8:1]/8,3,4/8<4[48:7]*>4[48:7],7,8,,
{8}75,6h[128:1]/5,42,3h[128:1]/4,{24}7,6,5,2,3,4,
{32}8,7,6,5,1,2,3,4,
{4}8pp5[16:9],,,{8}4,3,
{4}6/2-6[4:1],,,{8}4,5,
{4}3/6pp5[16:7],,{8}2,,3,,
54,,,{16}4,5,{4}4w8[8:1],,
{8}26,1h[8:1],{16}7,8,7,6,{8}7h[8:1],5h[8:1],4h[8:1],3h[8:1],
{16}6,5,4,3,6,5,4,3,{8}5h[8:1],3h[8:1],2h[8:1],1h[8:1],
7-3[8:1],8,1-4[8:1]*-6[8:1],2,1,,{16}4,5,3,6,
{8}2-6[8:1],1,8-5[8:1]*-3[8:1],7,8,,,{16}6,2,
{16}4,5,6,7,1,2,3,4,{8}8h[8:1],5h[8:1],6h[8:1],5h[8:1],
{16}7,6,5,4,1,2,3,4,{8}6h[8:1],5h[8:1],7h[8:1],5h[8:1],
{12}8,8,6,8,7,6,8,7,6,7,6,5,
2,2,4,2,3,4,2,3,4,3,4,5,
{4}6h[4:1]/3h[4:1],,4b>1[8:1]`8b<5[8:1],4bq6[4:2]`8bq2[4:2],
4b/8b,,,{16}8/4>6[8:2],73,62,51,
{8}84,,4-8[8:1],{16}5,3,{8}4V25[32:7],2,6<1[8:1],8,
6-2[8:1],{16},5,{8}6,{16}4,4,8,3,6,1,5-8[8:1],4,7,2,
5V74[32:7],,,4,{8}4-8[8:1],3,1-6[8:1],2-5[8:1],1,2,
{16}8-4[8:1],7,6,5,{4}4>1[8:1]/8<5[8:1],,{16}48,1,2,3,
5qq4[16:3]/4,,,6,6>8[32:7],,7,,8-4[8:1],,{24}8,7,6,{8}5pp4[32:7],,
{16}3<1[32:7],,,2,2,,{24}1,2,3,{8}4,{24}5-8[8:1],4,3,{8}6/2-5[8:1],5,
2,,{16}73,6,54,3,{4}6h[8:1]/2h[8:1],{16}37,4,65,7,
{4}8b<5[8:1]/4b>1[8:1],4b-7[8:1]/8bv3[8:1],4b/8b,{16}1/5<3[8:2],26,37,48,
{8}15,,5-1[8:1],{16}4,6,{8}5V74[32:7],7,3>8[8:1],1,
3-7[8:1],{16},4,{8}3,{16}5,5,1,6,3,8,2-6[8:1],7,4,5,
2V48[4:1],,,8,{8}8-3[8:1],7,5-1[8:1],6-8[32:3],5,6,
{16}2-6[8:1],3,4,5,{4}2<7[8:1]/6>3[8:1],,{16}48,1,2,3,
{16}4pp5[16:3]/5,,,6,6>8[32:7],,8,,8-4[8:1],,{24}7,6,5,{8}4,{24}5,6,7,
{16}8qq8[16:3]/2,,,1,1<3[32:7],,3,,3,,{24}2-5[8:1],1,8,{8}7-4[8:1],2,
{16}7,,,,26,3,45,6,3h[8:1]/7h[8:1],,,,26,5,34,2,
{16}15,,37,26,1>4[8:1]*<6[8:1]/5,,37,,{4}1bw5[8:1],1b,
{16}37,3h[8:1],,6-8[32:3],,,1,1-5[8:1],,3-1[32:3],,1,,3,,6,6h[8:1],,1>4[8:1],,8,8,1,7-3[8:1],,6,5,7,,4,,4,
6,6h[8:1],,3-1[32:3],,,8,8-4[8:1],,6-8[32:3],,8,,6,,3,3h[8:1],,8<5[8:1],,1,1,8,2,,3,4,1,6,5,8,,
{16}37,3h[8:1],,5-8[8:1],,,1,1-6[8:1],,3-7[8:1],,1,,3,,5,5h[8:1],,1>4[8:1],,8,8,1,7-3[8:1],,6,5,7,,4,,4,
6,6h[8:1],,4-1[8:1],,,8,8-3[8:1],,6-2[8:1],,8,,6,,4,4h[8:1],,8<5[8:1],,1,1,8,2,,3,4,2,1-5[8:1],5,3,7,
{16}1,,,6,3/6-3[8:1],,1-5[8:1],,6-1[8:1],,1<6[48:7]*>4[48:7],,6,,,,
,,,5,5-7[32:3]/3,,1-3[8:1],,5-1[8:1],,1-4[48:7]*-6[48:7],,5,,,,
,,,7,7-4[48:5]/3,,1-3[32:3],,7,,1-5[8:1],,4<7[8:1],,1>4[8:1],,
4,,1,,6,6,5,7,2,2,1,3,8-4[8:1],4,6,2,
8,,,3,6/3-6[8:1],,8-4[8:1],,3-8[8:1],,8>3[48:7]*<5[48:7],,3,,,,
,,,4,4-2[32:3]/6,,8-6[8:1],,4-8[8:1],,8w4[8:1],,4,,,,
{8},26,48,15,46,37,15,48,{16}3/7>6[16:7],8>7[16:7]/4,1>8[16:7]/5,2>1[16:7]/6,37,,,,7,8,1,2,3,4,5,6h[16:7]/2h[16:7],,,,,,,,35,4,
