&title=Bookmaker (2D Version)
&artist=Kobaryo
&first=0.02
&des=Tane
&freemsg=Kobaryo
&wholebpm=175
&lv_4=10
&lv_5=13
&lv_6=13+
&inote_4=(175){1},
{8}4b/5b,,,,
,,,3,
{8},,,,
,,,2,
{8},,,,
,,,1,
{8},,,,
,8,,18,
{8},,,,
,,,7,
{8},,,,
,,,6,
{8},,,,
,,,5,
{8}4h[4:1],,5h[4:1],,
4,4,5,,
{8}3,,2,,
2,1,2,,
{8}2h[4:1],,,,
1/2,,3,,
{8}6,,7,,
7,8,7,,
{8}7h[4:1],,,,
8/7,,6,,
{8}3,,2,,
2,1,2,,
{8}2h[4:1],,,,
1/2,,56,,
{8}6,,7,,
7,8,7,,
{8}7h[4:1],,,,
8/7,,34,,
{8}45,,45,,
7h[8:1],,7h[8:1],,
{8}1h[8:1],,1h[8:1],,
6-4[8:1],,1,,
{8}35,,35,,
34,,12,,
{8}78,,56,,
34,,,,
{8}54,,54,,
2h[8:1],,2h[8:1],,
{8}8h[8:1],,8h[8:1],,
3-5[8:1],,8,,
{8}64,,64,,
65,,87,,
{8}21,,43,,
65,,,,
{8}45,,45,,
7h[8:1],,1h[8:1],,
{8}7h[8:1],,1h[8:1],,
6-4[8:1],,3,,
{8}35,,35,,
78,,34,,
{8}12,,56,,
78,,,,
{8}54,,54,,
2h[8:1],,8h[8:1],,
{8}2h[8:1],,8h[8:1],,
3-5[8:1],,6,,
{8}64,,64,,
21,,65,,
{8}87,,43,,
21,,,,
{8}7h[4:1],,8h[4:1],,
6h[4:1],,5,,
{8}6,6,5,5,
6-4[8:1],,,,
{8}3h[4:1],,1h[4:1],,
2h[4:1],,4,,
{8}2,2,4,4,
,3,4,,
{8}2h[4:1],,1h[4:1],,
3h[4:1],,4,,
{8}3,3,4,4,
3-5[8:1],,,,
{8}6h[4:1],,8h[4:1],,
7h[4:1],,5,,
{8}7,7,5,5,
,6,5,,
{8}7h[4:1],,5h[4:1],,
3h[4:1],,1h[4:1],,
{8}3h[4:1],,5h[4:1],,
7h[4:1],,1,,
{8}4h[4:1],,2h[4:1],,
8h[4:1],,6h[4:1],,
{8}8h[4:1],,2h[4:1],,
4h[4:1],,6,,
{8}2h[4:1],,4h[4:1],,
6h[4:1],,8h[4:1],,
{8}6h[4:1],,4h[4:1],,
2h[4:1],,8,,
{8}5h[4:1],,7h[4:1],,
1h[4:1],,3,,
{16}3,4,3,4,
3,,,,
6,5,6,5,
6,,,,
{4}4b/5b,,,,
{4},,,,
{8},4,,4,
,3,,3,
{8}4,,4,3,
,2,,3,
{8},4,,5,
,6,,6,
{8}5,,7,8,
,7,8,7,
{8},5,,5,
,6,,6,
{8}5,,5,6,
,7,,6,
{8},5,,4,
,3,,3,
{8}4,,2,1,
,2,1,2,
{8}2bz6[4:10],,,,
,,,,
{8}4,,,,
,,,,
{8}5,,,,
,,,,
{8}7,,,,
,,,,
{8}7s3[4:10],,,,
,,,,
{8}5,,,,
,,,,
{8}4,,,,
,,,,
{8}2,,,,
,,,,
{8}4,,3,,
2,1,2,,
{8}2h[4:1],,,,
1/2,,3,,
{8}5,,6,,
7,8,7,,
{8}7h[4:1],,,,
8/7,,6,,
{8}4,,3,,
2,1,2,,
{8}2h[4:1],,,,
1/2,,56,,
{8}5,,6,,
7,8,7,,
{8}7h[4:1],,,,
8/7,,34,,
{4}3-1[8:1],4-8[8:1],1-5[8:1],8,
{4}7-5[8:1],4-8[8:1],7-5[8:1],4,
{4}2-4[8:1],1-5[8:1],4-8[8:1],5,
{4}78,78,12,12,
{4}6-8[8:1],5-1[8:1],8-4[8:1],1,
{4}2-4[8:1],5-1[8:1],2-4[8:1],5,
{4}7-5[8:1],8-4[8:1],5-1[8:1],4,
{4}21,21,87,87,
{4}3-5[8:1],7-1[8:1],2-6[8:1],8,
{4}7-5[8:1],1-3[8:1],8-4[8:1],1,
{4}1-7[8:1],6-2[8:1],3-5[8:1],8,
{4}48,48,26,26,
{4}6-4[8:1],2-8[8:1],7-3[8:1],1,
{4}2-4[8:1],8-6[8:1],1-5[8:1],8,
{4}8-2[8:1],3-7[8:1],6-4[8:1],1,
{4}51,51,73,73,
{4}1V35[4:4],,,,
{4}8V64[4:4],,,,
1^4[4:4],,,,
8^5[4:3],,,,
{8}4,,3,,
2,1,2,,
{8}7,8,7,,
12,,4,,
{8}5,,6,,
7,8,7,,
{8}2,1,2,,
87,,5,,
{4}3-7[8:1],8-5[8:1],4-1[8:1],6,
{4}7-2[8:1],3-6[8:1],8-4[8:1],1,
{4}1-5[8:1],4-8[8:1],2-7[8:1],8,
{4}48,26,15,37,
{4}6-2[8:1],1,1-4[8:1],6,
{8}56,,78,,
2,1,2,,
{4}3-5[2:1],,,,
{16}7,5,6,5,
7,,,,
2,4,3,4,
2,,,,
{8}8b/1b,,
&inote_5=(175){1},
{8}4b>5[4:13]/5b,,,,
,,,6,
{8},,,,
,,,1,
{8},,,,
,,,3,
{8},,,,
,4,,5<4[4:10],
{8},,,,
,,,3,
{8},,,,
,,,8,
{8},,,,
,,,5,
{8}4,4,5,5,
4,5,4,,
{8}3h[8:1],,1,,
8-4[8:1],8,1,,
{8}2,1,2-5[8:1],,
8h[8:1],,8,,
{8}6h[8:1],,8,,
1-5[8:1],1,8,,
{8}7,8,7-4[8:1],,
1h[8:1],,1,,
{8}3,4,2,5,
1-5[8:1],1,8,,
{8}7,8,6,1,
7-4[8:1],,1,,
{8}6,5,7,4,
8-4[8:1],8,1,,
{8}2h[8:1]/4,,5/7h[8:1],,
4,5,3,6,
{8}45,,45,,
7h[16:1],7h[16:1],8h[16:1],8h[16:1],
{8}6-3[8:1],,2-8[8:1],,
7,,78,6,
{8}78,,78,,
6^1[8:1],5,4,3,
{8}2^5[8:1],1,8,7,
56,7,56,,
{8}54,,54,,
2h[16:1],2h[16:1],1h[16:1],1h[16:1],
{8}3-6[8:1],,7-1[8:1],,
2,,21,3,
{8}21,,21,,
3^8[8:1],4,5,6,
{8}7^4[8:1],8,1,2,
43,2,43,,
{8}5-2[8:1],6,7,8,
8-4[8:1],,1,,
{8}2-4[8:1],,6-8[8:1],,
2,,34,2,
{8}3-8[8:1]/4,,6,,
7-4[8:1],,1,,
{8}2-5[8:1],,1,,
7,56,7,,
{8}4-7[8:1],3,2,1,
1-5[8:1],,8,,
{8}7-5[8:1],,3-1[8:1],,
7,,65,7,
{8}6^3[4:3],,,,
,,,,
{8}2,7,3,6,
4,5,3,6,
{8}3-1[8:1],,4-8[8:1],,
1-5[8:1],1,8,,
{8}5-1[8:1],5,6-8[8:1],6,
5<3[4:1],,8,,
{8}4-8[8:1],,3-1[8:1],,
8-4[8:1],8,1,,
{8}4-8[8:1],4,1-5[8:1],1,
8-6[8:1],,5,,
{8}6-8[8:1],,5-1[8:1],,
8-4[8:1],8,1,,
{8}4-8[8:1],4,3-1[8:1],3,
4>6[4:1],,1,,
{8}5-1[8:1],,6-8[8:1],,
1-5[8:1],1,8,,
{8}8,4,6,2,
5,1,7,3,
{8}8-6[8:1],8,5-1[8:1],5,
8-4[8:1],8,1,,
{8}4-8[8:1],4,1-5[8:1],1,
6<3[4:1],,5,,
{8}4-8[8:1],4,7-5[8:1],7,
1-5[8:1],1,8,,
{8}7-5[8:1],7,1-3[8:1],1,
,5,17,,
{8}1-3[8:1],1,4-8[8:1],4,
1-5[8:1],1,8,,
{8}5-1[8:1],5,8-4[8:1],8,
3>6[4:1],,4,,
{8}5-1[8:1],5,2-4[8:1],2,
8-4[8:1],8,1,,
{16}3,4,3,4,
3h[8:1],,,,
6,5,6,5,
6h[8:1],,,,
{4}1b/8b,,,,
{4},,,,
{8},4,7,5,
,7,,5,
{8}6,,5,6,
4,7,,6,
{8},4,7,5,
,7,,4,
{8}6,,2,8,
{16},,2,1,
2,,3,,
{8},5,2,4,
,2,,4,
{8}3,,4,3,
5,2,,3,
{8},5,2,4,
,2,,5,
{8}3,,7,1,
{16},,7,8,
7,,6,,
{8}4bz8[4:14]/5b,,5,,
,,6,,
{8},,7,,
,,8,,
{8},,1,,
,,2,,
{8},,3,,
,,4,,
{8}5s1[4:13],,4,,
,,3,,
{8},,2,,
,,1,,
{8},,8,,
,,7,,
{8},,6,,
,,5,,
{8}3h[8:1],,5h[8:1],,
1-5[8:1],1,8,,
{8}7,8,5,2,
7-4[8:1]/1h[8:1],,1,,
{8}6h[8:1],,4h[8:1],,
8-4[8:1],8,1,,
{8}2,1,4,7,
2-5[8:1]/8h[8:1],,8,,
{8}6,5,8,2,
7-4[8:1],1,8,,
{8}5,1,6,2,
7-4[8:1],1,2,,
{8}3,4,1,7,
2-5[8:1],8,1,,
{8}4/8h[8:1],,1h[8:1]/5,,
4,5,3,6,
{16}35,,3,4,
2,,6,5,
7,,28,,
3,,25,,
{16}64,,6,5,
7,,3,4,
2,,71,,
6,,74,,
{16}35,,3,4,
2,,6,5,
7,,28,,
3,,25,,
{16}1V35[8:1],,4,,
6,,7,,
8V64[8:1],,5,,
3,,2,,
{16}35,,3,4,
1,,6,5,
8,,47,,
2,,35,,
{16}64,,6,5,
8,,3,4,
1,,52,,
7,,64,,
{16}35,,3,4,
1,,6,5,
8,,47,,
2,,35,,
{16}7V53[8:1],,4,,
3,,1,,
2V46[8:1],,5,,
6,,8,,
{8}5/7-5[8:1],,17,,
2-4[8:1]/4,,28,,
{8}6/7-4[8:1],,17,,
2-5[8:1]/3,,28,,
{8}7-1[8:1]/3,,75,,
6/2-8[8:1],,24,,
{8}1V35[8:1],,6,,
8V64[8:1],5,3,,
{16}42,,7,5,6
,,2,4,
3,,83,,
4,,62,,
{16}57,,2,4,3
,,7,5,
6,,16,,
5,,37,,
{16}42,,7,5,6
,,2,4,
3,,83,,
4,,62,,
{8}1V35[8:1],4,6,8,
8V64[8:1],5,3,1,
{4}1V35[4:4],,,,
{4}5v8[4:4],,,,
8<1[4:4],,,,
1q5[4:3],,,,
{8}6h[8:1],,7h[8:1],,
8p4[8:1],8,1,,
{8}3,4,1,7,
8p4[8:1],1,2,,
{8}3,4,2,5,
1q5[8:1],1,8,,
{8}7,5,3,1,
2,4,5,7,
{16}16,,7,5,6
,,3,4,
2,,17,,
5,,46,,
{16}83,,2,4,3
,,6,5,
7,,82,,
4,,35,,
{16}16,,7,5,6
,,3,4,
2,,17,,
5,,46,,
{8}7V53[8:1],7,8,1,
2V46[8:1],2,1,8,
{8}6^3[4:2],,,,
1-5[8:1],,1,,
{8}4-7[8:1]/7,,34,,
2-5[8:1]/5,1,25,,
{8}6h[16:1],6h[16:1],3h[16:1],3h[16:1],
5h[16:1],5h[16:1],4h[16:1],4h[16:1],
{16}7,5,6,5,
7h[8:1],,,,
2,4,3,4,
2h[8:1],,,,
{8}8b/1b,,
&inote_6=(175){1},
{8}4b>5[4:13]/5b,,,,
,,,6,
{8},,,,
,,,1,
{8},,,,
,,,3,
{8},,,,
,4,,5<4[4:10],
{8},,,,
,,,3,
{8},,,,
,,,8,
{8},,,,
,,,5,
{8}5h[8:1],4h[8:1],6h[8:1],3h[8:1],
5h[8:1],4,5,4,
{8}5,5h[8:1],3,3h[8:1],
7,7h[8:1],1h[8:1],,
{8}5,5h[8:1],3,3h[8:1],
8-5[8:1],8h[8:1],,,
{8}4,4h[8:1],6,6h[8:1],
2,2h[8:1],8h[8:1],,
{8}4,4h[8:1],6,6h[8:1],
1-4[8:1],1h[8:1],,,
{8}5h[8:1],3h[8:1],7h[8:1],1h[8:1],
7h[8:1],3h[8:1],5h[8:1],3h[8:1],
{8}7h[8:1],1h[8:1],5h[8:1],3h[8:1],
7h[8:1],1h[8:1],5h[8:1],4,
{16}4,5,4,5,
4,5,4,5,
4,5,4,5,
4,5,4,5,
{8}2h[8:1],8h[8:1],4h[8:1],6h[8:1],
2h[8:1],4h[8:1],1h[8:1],,
{8}45,,45,,
7h[16:1],7h[16:1],8h[16:1],8h[16:1],
{8}6h[16:1],6h[16:1],1h[16:1],1h[16:1],
7-4[8:1],8,7,,
{8}34,,34,,
2h[16:1],2h[16:1],8h[16:1],8h[16:1],
{8}4h[16:1],4h[16:1],6h[16:1],6h[16:1],
47,2,47,,
{8}54,,54,,
2h[16:1],2h[16:1],1h[16:1],1h[16:1],
{8}3h[16:1],3h[16:1],8h[16:1],8h[16:1],
2-5[8:1],1,2,,
{8}65,,65,,
7h[16:1],7h[16:1],1h[16:1],1h[16:1],
{8}5h[16:1],5h[16:1],3h[16:1],3h[16:1],
52,7,52,,
{8}2/5-2[8:1],,56,7,
8-4[8:1],,18,,
{8}2h[16:1],2h[16:1],5h[16:1],5h[16:1],
7-4[8:1],,71,2,
{8}3-8[8:1],,35,,
7-4[8:1],,71,,
{8}3h[16:1],3h[16:1],5h[16:1],5h[16:1],
47,2,47,,
{8}7/4-7[8:1],,43,2,
1-5[8:1],,81,,
{8}7h[16:1],7h[16:1],4h[16:1],4h[16:1],
2-5[8:1],,28,7,
{8}6s2[4:3],,,,
,,,,
{8}3h[8:1],6h[8:1],4h[8:1],8h[8:1],
6h[8:1],4h[8:1],2h[8:1],,
{8}3-1[8:1],,8-4[8:1],,
5-7[8:1],,8,,
{8}4-8[8:1],4,7-5[8:1],7,
1-3[8:1],1,4,,
{8}6-8[8:1],,1-5[8:1],,
4-2[8:1],,1,,
{8}5-1[8:1],5,2-4[8:1],2,
8-6[8:1],8,5,,
{8}3-1[8:1],,8-4[8:1],,
5-7[8:1],,8,,
{8}8-6[8:1],8,4-2[8:1],4,
5-1[8:1],5,2,,
{8}3-1[8:1],,8-4[8:1],,
5-7[8:1],,8,,
{8}8,4,6,2,
5,1,7,3,
{8}8-4[8:1],1-3[8:1],8,1,
5-7[8:1],4-8[8:1],5,4,
{8}7-5[8:1],7,1-3[8:1],1,
4-8[8:1],4,1,,
{8}1-5[8:1],8-6[8:1],1,8,
4-2[8:1],5-1[8:1],4,5,
{8}2-4[8:1],2,8-6[8:1],8,
5-1[8:1],5,8,,
{8}8-4[8:1],3-1[8:1],8,3,
5-7[8:1],8-4[8:1],5,8,
{8}7-5[8:1],7,3-1[8:1],3,
4-8[8:1],4,1,,
{8}1-5[8:1],6-8[8:1],1,6,
4-2[8:1],1-5[8:1],4,1,
{8}2-4[8:1],,6-8[8:1],,
5-1[8:1],,,,
{4}1b/8b,,,,
{4},,,,
{8},4,7^5[8:1],,
,2,,1,
{8}1,,3,4,
3,2-4[8:1],,5,
{8},5,4^2[8:1],,
,7,,4,
{8}6,,2,8^6[8:1],
{16},,1,2,
3,,3,,
{8},5,2^4[8:1],,
,7,,8,
{8}8,,6,5,
6,7-5[8:1],,4,
{8},4,5^7[8:1],,
,2,,5,
{8}3,,7,1^3[8:1],
{16},,8,7,
6,,6,,
{8}4b>5[4:14]/5b,,5,,
,,5,,
{8},,4,,
,,4,,
{8}3q4[4:2],,,,
,,,,
{8}4p2[4:2],,,,
,,,,
{8}5<4[4:13],,4,,
,,4,,
{8},,5,,
,,5,,
{8}6q8[4:2],,,,
,,,,
{8}8p5[4:2],,,,
,,,,
{8}3,3h[8:1],5,5h[8:1],
7,7h[8:1],8^3[8:1],,
{8}6,6h[8:1],4,4h[8:1],
2-6[8:1],2h[8:1],,,
{8}6,6h[8:1],4,4h[8:1],
2,2h[8:1],1^6[8:1],,
{8}3,3h[8:1],5,5h[8:1],
7-3[8:1],7h[8:1],,,
{8}2h[8:1],4h[8:1],6h[8:1],8h[8:1],
7h[8:1],5h[8:1],3h[8:1],1h[8:1],
{8}8h[8:1],6h[8:1],2h[8:1],4h[8:1],
6h[8:1],8h[8:1],1h[8:1],3,
{16}5,1,5,1,
5,1,5,1,
7,3,7,3,
7,3,7,3,
{8}7h[8:1],1h[8:1],5h[8:1],3h[8:1],
7h[8:1],5h[8:1],8h[8:1],,
{8}8-4[8:1],,3V17[8:1],,
6-2[8:1],,8-4[8:1],,
{8}5V71[8:1],,2-6[8:1],,
8-4[8:1],,1V35[8:1],,
{8}6-2[8:1],,4-8[8:1],,
1V75[8:1],,2,,
{8}1V35[8:1],,7,,
48,2,48,,
{8}1-5[8:1],,6V82[8:1],,
3-7[8:1],,1-5[8:1],,
{8}4V28[8:1],,7-3[8:1],,
1-5[8:1],,8V64[8:1],,
{8}3-7[8:1],,5-1[8:1],,
8V24[8:1],,7,,
{8}8V64[8:1],,2,,
51,7,51,,
{8}2-6[8:1],,7V53[8:1],,
8-4[8:1],,3-1[8:1],,
{8}8-4[8:1],,3V57[8:1],,
2-6[8:1],,1V75[8:1],,
{8}4-8[8:1],,5V31[8:1],,
8-4[8:1],,7V13[8:1],,
{8}4-8[8:1],,5,,
37,1,37,,
{8}7-3[8:1],,2V46[8:1],,
1-5[8:1],,6-8[8:1],,
{8}1-5[8:1],,6V42[8:1],,
7-3[8:1],,8V24[8:1],,
{8}5-1[8:1],,4V68[8:1],,
1-5[8:1],,2V86[8:1],,
{8}5-1[8:1],,4,,
62,8,62,,
{4}8V64[4:4],,,,
{4}4v1[4:4],,,,
1>8[4:4],,,,
8p4[4:3],,,,
{8}3h[4:1],,1,1h[8:1],
5,5h[8:1],6,,
{8}6,6h[8:1],8,8h[8:1],
4,4h[8:1],3,,
{8}5,5h[8:1],2,2h[8:1],
7,7h[8:1],4,4,
{8}7h[8:1],3h[8:1],5h[8:1],1h[8:1],
3h[8:1],5h[8:1],7h[8:1],,
{4}7-3[8:1],2V86[8:1],5-1[8:1],8V24[8:1],
4V68[8:1],3-7[8:1],8V24[8:1],5-1[8:1],
{4}6V82[8:1],3-7[8:1],5-1[8:1],8V24[8:1],
7-3[8:1],2,1V35[8:1],7,
{8}6^3[4:2],,,,
1-5[8:1],,1,,
{8}4-7[8:1]/7,,34,,
2-5[8:1]/5,1,25,,
{8}6h[16:1],6h[16:1],3h[16:1],3h[16:1],
5h[16:1],5h[16:1],4h[16:1],4h[16:1],
{16}6,5,6,5,
6,5,6,5,
7,4,8,3,
1,2,8,3,
{8}7b/4b,,
