&title=あすいろ恋模様
&artist=クリティクリスタ
&first=0.037
&des=Hatsune
&lv_5=13+
&inote_5=(180)
{1},
{16},,,,,,,,,,,,,,,,
{32}3,5h[32:31],,,{16},,,,,,,,,,,,,,
{16}6,,,,8,,,,1,,,,3,,,,
{32}6,4h[32:31],,,{16},,,,,,,,,,,,,,
{16}3,,,,1,,,,8,,,,6,,,,
{32}3,5h[32:15],,,{16},,,,,,3,,,,4,,,,
{16}6/5h[4:2],,,,,,,,6,,,,4,,,,
{16}5h[4:2]/3,,,,,,,,4qq5[4:2],,,,7h[4:2],,,,
{16},,,,,,,,6,5,6,,3,4,3,,
{16}5/2V48[4:1],,,,7,,7,,6,,5,,,,2/4-8[8:1],,
{16},,24,,,,7/5-1[8:1],,,,75,,,,,,
{16}3/7V51[4:1],,,,2,,2,,3,,4,,,,7/5-1[8:1],,
{16},,75,,,,2/4-8[8:1],,,,24,,,,,,
{16}7/3V52[4:1],,,,6,,6,,7,,8,,,,1/2-5[8:1],,
{16},,12,,,,8/7<4[16:2],,,,87,,,,,,
{16}17,,6,,45,,3,,12,,83,,74,,65,,
{16},,8,,17,,3,4,3,4,3,,26,,,,
{16}2h[4:1]/5,,,,1,,3/8h[4:1],,,,5,,4/7,,5,,
{16},,3,,2h[4:1]/4,,,,4,,4,,36,,,,
{16}7h[4:1]/4,,,,8,,6/1h[4:1],,,,4,,5/2,,4,,
{16},,6,,7h[4:1]/5,,,,5,,5,,6-4[8:1]/3,,,,
{16}2/6,,,,2,,3/8h[4:1],,,,5,,4/7,,5,,
{16},,3,,2h[4:1]/4,,,,4,,5,,3-5[8:1]/6,,,,
{16}37,,,,64,,2,,35,,7,,46,,15,,
{16},,26,,26,,3,4,3,,2,,1-5[8:1]/8-4[8:1],,,,
{16}18,,,,36,,6,,3,,4,,72,,7,,
{16}4,,5,,83,,8,,2,,8,,16,,1,,
{16}4,,6,,27,,2,,5,,7,,3/8h[4:1],,,,
{16}3V51[4:1],,3,,8,,8,,7-4[8:1],,8,,7,,,,
{16}71,,,,63,,3,,6,,5,,27,,2,,
{16}5,,4,,16,,1,,7,,1,,83,,8,,
{16}5,,3,,72,,7,,4,,2,,61,,7-4[8:1],,
{16},,37,,1b,,,,5,4,5,4,6,,,,
{16}73,,4,,5,,26,,4,,5,,17,,,,
{16}3h[4:1]/5,,,,6,,7h[4:1]/4,,,,8,,61,2,3,4,
{16}7,,7,,5,,26,,4,,3,,17,,,,
{16}3h[4:1]/5,,,,4,,25,,1,2,3,4,8,7,6,5,
{16}2,,2,,4,,37,,5,,6,,82,,,,
{16}4,,4,,3/5,,3/5,,,,27,,1,8,1,8,
{16}1-5[8:1],,,,18,,,,8/4>1[8:1],,,,48,,,,
{16}8/2-6[8:1],,,,28,,,,8/5>2[8:1],,,,85,,,,
{16}7-4[8:1]/1,,,,7/1-5[8:1],,,,1/6-1[8:1],,,,4/6,,,,
{16}3,,7,,6b/1bq3[4:1],,6b/1b,,,,,,,,,,
{16}6/5>2[16:2],,,,6,,8-4[8:1],,7,,2-5[8:1],,1,,7-4[8:1],,||up↑↑↑?
{16}8,,2-5[8:1],,1,,7-3[8:1],,8,,1-5[8:1],,8,,6<3[16:4],,
{16},,,,4,,4,,5V38[16:4],,,,6,,6,,
{16}5,,,,64,,,,5,,3,,2-6[8:1]/6,,,,
{16}8b-3[8:1]*-5[8:1],,,,8,,,,4,,6,,7-3[8:1]/3,,,,
{16}1b-6[8:1]*-4[8:1],,,,1,,,,73,,28,,1-5[8:1],,,,
{16}1b/7b,,,,6,,4,,8>6[4:1],,,,8b/4b,,,,
{16},,1,,28,,,,8p6[4:1],,8,,,,,,
{16}4<7[8:1],,,,3,,1-5[8:1],,2,,7-4[8:1],,8,,2-5[8:1],,
{16}1,,7-4[8:1],,8,,2-6[8:1],,1,,8-4[8:1],,1,,3>6[16:4],,
{16},,,,4,,4,,5V73[16:4],,,,1,,1,,
{16}2,,,,46,,,,1,,8,,7-3[8:1]/3-5[8:1],,,,
{16}7b/3b,,,,,,1,,1,,7,,2-6[8:1]/6-4[8:1],,,,
{16}2b/6b,,,,,,8,,1,,82,,2/8-4[8:1],,,,
{16}8b/2b,,,,3,,5,,1<3[4:1],,,,1b/5b,,,,
{16},,8,,71,,,,3,,5,,26,,3,5,
{16}3-5[8:1],,,,7-3[8:1],,7,,1-7[8:1],,1,,5,,5,,
{16}8-2[8:1],,,,6-2[8:1],,6,,4-6[8:1],,4,,8,,8,,
{16}5-2[8:1],,,,7-4[8:1],,7,,1-6[8:1],,1,,5,,5,,
{16}8<5[8:1]*>3[8:1],,,,8,,,,1,8,1,8,2b/7b,,,,
||{16}12,,3,,5/4-8[8:1],,7,,8<2[4:1],,,,,,,,
||{16}8bh[4:1],,,,4,,3-5[8:1],,2,,8-4[8:1],,7,,2-5[8:1],,
||{16}3,,7-3[8:1],,8,,1-5[8:1],,8,,6-8[8:1],,7,,2>7[4:1],,
{16}8/2-4[8:1],,,,1/2-6[8:1],,1,,7/2-4[8:1],,7,,12,,1,,
{16}2/7-5[8:1],,,,8/7-3[8:1],,8,,2/7-5[8:1],,2,,87,,8,,
{16}16,,7,,7,,35,,2,,2,,64,,8,,
{16}71,,3,,18,,6,,3,4,3,4,3,4,3,4,
{16}2V48[4:1],,,,7,,7,,6,,5,,,,2-4[8:1]/4-8[8:1],,
{16},,24,,,,7-5[8:1]/5-1[8:1],,,,75,,,,,,
{16}3/7V51[4:1],,,,2,,2,,3,,4,,,,7-5[8:1]/5-1[8:1],,
{16},,75,,,,2-6[8:1]/4-8[8:1],,,,24,,,,,,
{16}7/3V52[4:1],,,,8,,8,,6,,5,,,,1-6[8:1]/2-5[8:1],,
{16},,12,,,,8v3[16:2]/7-4[16:2],,,,87,,,,,,
{16}18,,6,,47,,2,,15,,4/7-3[8:1],,65,,1b,,
{16},,8,,17,,3,4,2,5,3,4,1v6[8:1],,25,,
{16}1b>8[2:7],,,,,,,,,,,,,,,,
{16},,,,,,,,,,,,,,,,
{16},,,,,,,,,,,,,,,,||还是剪掉吧
{16},,,,,,,,,,,,,,,,
