&title=【FULL】モニタリング feat. 初音ミク
&artist=DECO*27
&first=2.92
&des=小white君
&lv_5=1
&lv_6=13+
&inote_5=
&inote_6=(132)
{4}C,C,C,,7-4[8:1],
{16}3,,2,,2h[4:1],,,3,,,4,,2,,,,2,,,,2,,,,2,,,,2-5[8:1],,,,6,,7,,7h[4:1],,,6,,,5,,7,,,,7,,,,7,,,,7,,,,
{16}7v4[8:1],,,,3,,2,,5h[4:1],,,3,,,5,,2,,,,2,,,,2,,,,2,,,,2v5[8:1],,,,6,,7,,4h[4:1],,,6,,,4,,7,,,,7h[4:3],,,,,,
{8}E2,E3,,,
{16}3,4,2,,2,,5/3,,,4,3,,5q4[4:1],,,,2h[8:7],,,,,,E4,B3,,E2,B8,E8,,B6,,,
{16}6,5,7,,7,,4/6,,,5,6,,3-5[8:1],,,,7h[8:1],,,,E2/B2,,E8/B7,,
{16},,1-4[8:1],,,,7x,,,,6h[8:1],,5,6,,5,7,4,6,3,5,2,4-1[8:1],,,,6x,,7,7qq4[16:5],,,1h[16:2],,,,,,,2,3x,,2,3x,,2,4,,2,B8,,
{16}2x,3,4,6,5,7,4,6h[4:1],,1,1,E2,E3,E4,E5,E7,E8,E1,E2,3,,4h[8:1],3-5[12:1],,2,,8/3,,
{16}7,6,5,4/3,,5/6,,6,,5h[8:1],6-4[12:1],,7,,1/6,,2,3,4,5/6,,4/7,,C,,,,2/8,,7,,5/6,,,2/4,,,7/8,,,,,,,,,,,,
{12}2x/7,3x,
{16}4x,
{24}5x,6x,
{32}7x,8x,
{64}1bx,E6f,
{32}2bx/E7f,3bx/E8f,,,,,,
{16}8/4,,6,5,7,,3,4,2qq6[4:1],,5h[4:1],,,,,,,,3,4,2,,6,5,7,,1-5[8:1]/8,,A2/A3/E3/D3,,1/8-4[8:1],,A7/A6/E7/D7,,,,1,,
{16}3/7,3/7,,,2/6,,E1,,E8,,6/4,,3,,8/2,,7,5,,7,1,,2hb[8:1]/8hbx[8:1],,,3,5,4,6,5,7hb[8:1]/1hbx[8:1],,,
{16}6,4,5,3,4,2hb[8:1]/8bx,,7,,6,,5,5,,,3,4,2,,2,,7-4[16:1]/8,,,2,7,,1,1,6v1[8:1],,,4,6,,2,,
{16}8bh[64:1]/3bh[64:1],,8bh[64:1]/3bh[64:1],,4bh[64:1]/5bh[64:1],,2bh[64:1]/6bh[64:1],2bh[64:1]/6bh[64:1],,,
{12}7x,6x,
{16}5x,
{24}4x,3x,
{32}2x,1x,
{64}8bx,E4f,
{32}7bx/E3f,6bx/E2f,,,,,,{16}1/5,,3,4,2,,6,5,7pp4b[4:1],,4h[4:1],,,,,,,,3,4,2,,6,5,7,,8p4[8:1]/1,,A7/A6/E7/D7,,8/1q5b[8:1],,A2/A3/E3/D3,,,,8,,
{16}6/2,6/2,,,7/3,,E1,,E2,,3/5,,6,,1/7,,2,4,,2,8,,7hb[8:1]/1hbx[8:1],,,6,4,5,3,4,2hb[8:1]/8hbx[8:1],,,
{16}3,5,4,6,5,7hb[8:1]/1bx,,2,,3,,4,4,,,6,5,7,,7,,2-5[16:1]/1,,,7,2,,8,8,3v8[8:1],,,5,3,,7,,
{16}1bh[64:1]/6bh[64:1],,1bh[64:1]/6bh[64:1],,5bh[64:1]/4bh[64:1],,7bh[64:1]/3bh[64:1],7bh[64:1]/3b<2[16:5],,,,,,,,,
{8}6,
{16}7h[16:1]/3h[16:1],,,8h[16:1]/4h[16:1],,,1h[16:1]/5h[16:1],,,2h[16:1]/6h[16:1],,,
{16}7h[16:1]/3h[16:1],,,8h[16:1]/4h[16:1],,,1h[16:1]/5h[16:1],,,2h[16:1]/6h[16:1],,,
{16}7h[16:1]/3h[16:1],,,8h[16:1]/4h[16:1],,,1hb[16:1]/5h[16:1],,,2h[16:1]/6hb[16:1],,,
{16}7h[16:1]/3hb[16:1],,,8hb[16:1]/4h[16:1],,,1h[16:1]/5hb[16:1],,,2h[16:1]/6hb[16:1],,,
{16}7hb[16:1]/3hb[16:1],,,,4,,5,,6,,7,,8<5[16:2],,1,,8,,
{16}4x>1[16:1],4x,,8x<5[16:1],8x,,3x>8[16:1],3x,,7x<4[16:1],7x,,2x<7[16:1],2x,,6x>3[16:1],6x,,1x<6[16:1],1x,,5x>2[16:1],5x,,8x<5[16:1],8x,,
{16}4x>1[16:1],4x,,7x<4b[16:1],7x,,3x>8b[16:1],3x,,6x>3b[16:1],6x,,2x<7b[16:1],2x,,5x>2b[16:1],5x,,1x<6b[16:1],1x,,4x>1b[16:1],4x,,8xqq5[4:1],,,,,,,,,
{16}1x,,2,,6h[8:1],,5,6,,5,7,4,6,3,5,2,4-1[8:1],,3/5,,6x,,7,7qq4[16:5],,,1h[16:2],,,,,,,2h[16:1],3x,,2h[16:1],3x,,2h[16:1],4,,2h[16:1],E8,,
{16}2x,3,4,6,5,7,4,6,3,5,2,
{16},,6,,8-5[8:1],7,1,,2x,,,,3h[8:1],,4,3,,4,2,5,3,6,4,7,5-8[8:1],,6/4,,3x,,2,2pp5b[16:5],,,8h[16:2],,,,,,,7h[16:1],6x,,7h[16:1],6x,,7h[16:1],5,,7h[16:1],E2,,
{16}7,8,7,1,7,2,7,3,7,4,7,5,6,7,8,1/A5,2/A6,3/A7,4/A8,5b/A1f,,,,
{16}8/4,,6,5,7/4,,3,4,2qq6[4:1],,5h[4:1],,,,,,7x,,3,4,2,,6,5,7,,4-8[8:1]/5,,A3/A2/E3/D3,,4/5-1[8:1],,A6/A7/E7/D7,,,,3,,
{16},8/2>5[8:1],,,1,2,8,,7x,,6/4,,3,,8/2,,6,4,,7,1,,2hb[8:1]/8hbx[8:1],,,3,5,4,6,5,7hb[8:1]/1hbx[8:1],,,
{16}6,4,5,3,4,2hb[8:1]/8bx,,7,,6,,5,5,,,3,4,2,,2,,7v4b[16:1]/8,,,2,7,,1,1,6-1b[8:1],,,4,6,,2,,
{16}8bh[64:1]/3bh[64:1],,8bh[64:1]/3bh[64:1],,4bh[64:1]/5bh[64:1],,2bh[64:1]/6bh[64:1],7bhx[64:1]/3bx-8b[12:1],,,4,3x,5,
{16},,,B6/B7/E7f,,
{16}3,4,2,,1,,8h[4:1],,,1,,,7,,5q1>2[3:1]/3p7<6[3:1],,,,,,,,,,,,1/7,,3,3V52[4:1],5,,,3,6,,7,,8V61[4:1]*V61[4:1],,,
{16}1,8qq4[2:1],,2,,,,,,,,,,E2,E3,,C,,,6,5,7,,7,,1/8,,2,,3/5,,,6,4,,7,,1h[16:3],,,2h[16:3],,,3h[16:4],,,,
{16}5,,6,,7,,8/2,,,3,5,,2,,1/7,,,6,4,,7,,
{12}8b[64:1]/2b[64:1],8/2,8/2,,3b<1[4:1]/7b,3/7,3/7,,,Cf,,,
{12}1b[64:1]/7b[64:1],1/7,1/7,,6b/2b,6/2,6h[8:1]/2h[8:1],,,
{16}8,1,7bx,2bx,,,,,,,,,,,,,,,,,
{2}6bxp2p2p6p6[4:14]/C,C,C,C,C,C,C,C,
{16}2/7,,,6,5,6,5,7,,,,3,4,3,4,1,,,8,,7,,6,6,,,4,5,3/6,,2,,8/7h[16:3],,,E6,,,8,,1/2h[16:3],,,E4,,,1/8,,
{16}6b/5b,,4b/3b,,1b/8b,,2b/7b,2b/7b,,,
{12}2x,3x,
{16}4x,
{24}5x,6x,
{32}7x,8x,
{64}1bx,E6f,
{32}2bx/E7f,3bx/E8f,,,,,,
{16}8/4,,6,5,7<4[8:1],,1q2b[16:4],1,7,,1,,,,,,8,,3,4,2,,6,5,7h[4:1]/4>1[8:1],,3,,4v7[8:1]*v7[8:1],
,5x,,4-1b[8:1],,3x,,4b,,8p6[16:5],8,2,,3,,4h[8:1],,,,,,7,8,6,,1/5,1/5,,2/4,2/4,,7hb[8:1]/1hbx[8:1],,,6,4,5,3,4,2hb[8:1]/8hbx[8:1],,,
{16}3,5,4,6,5,7hb[8:1]/1hbx[8:1],,,6,4,5,3,8hx[16:3],,,2,,3/5,,6,,2-5<6[8:1]/1,,,7,2,,8,8,3-1<8b[8:1],,,5,3,,7,,
{16}1bh[64:1]/6bh[64:1],,1bh[64:1]/6bh[64:1],,5bh[64:1]/4bh[64:1],,7bh[64:1]/3bh[64:1],7bh[64:1]/3b<2b[16:5],,,,,,,,,
{16}A8f/E8/B8/E1,,,,2-5b[8:1]/6,,1,,2/7,8,1,2,3,4,5,6,4-1b[12:1],7,4,,6,,B5,B4,1x,,2,,7/3,8,1,,
{16}3h[16:1],5x,,2h[16:1],8x,,3,4,2h[8:1],,1,1,,3,4,5,7<4[8:1],,1,1,7-2[8:1]*-2[8:1],,2,2,7p3b[8:1],,4,4,7,,8,8,1b/7b,,
{16}4h[8:1],3b-5b[12:1],,2,,8/3,,
{16}7,6,5,4/3,,5/6,,6b,,5h[8:1],6b-4b[12:1],,7,,1/6,,2,3,4,5/6,,4/7,,1b/2b,,,,7,,6,,2/5,,3,4,,4,3,,
{16}1bh[64:1]/6bh[64:1],,1bh[64:1]/6bh[64:1],,8bh[64:1]/3bh[64:1],,2bh[64:1]/6bh[64:1],2bh[64:1]/6b-2[16:1],,,,,A6,,,,
