&title=Rush-More
&artist=litmus*
&first=0.05
&des=LNRSCHZY
&lv_5=13
&lv_6=14
&inote_2=
&inote_3=
&inote_4=
&inote_5=(160){1},
{4}3-1[8:1]/5,3/6-8[8:1],3-1[8:1]/6,3/6-8[8:1],
{8}3-1[8:1]/6,,3/6,5x,3/6,4x,3>1[8:1]/6<8[8:1],,
{4}3x/6x,4/6-8[8:1],3-1[8:1]/6,3/6-8[8:1],
{8}3-1[8:1]/6,,3/6,5x,3/6,4x,3>1[8:1]/6<8[8:1],,
{4}3x/6x,3-1[8:1]/5,3/6-8[8:1],3-1[8:1]/6,
{8}3/6-8[8:1],,3/6,4x,3/6,5x,3>1[8:1]/6<8[8:1],,
{4}3x/6x,4/6<8[8:1],3/6,3/5,
{32}6,,6,,4,,4,,5,,5,,3,,,,4/6-2[8:1],,,,4/6,,,,,B6,C1f,B2,,,,,
{8}1x,1x,8,8,5/7,4/5,2/4,1,
{8}8,7,1,1,2/4,4/5,5/7,1/8,
{8}7<4[8:1],7,8v3[8:1],8,7<4[8:1],7,8v3[8:1],8,
{8}7<4[8:1],7,8v3[8:1],8,7,7,1b,,
{8}5-8[8:1],5,4-1[8:1],4,5-8[8:1],5,4-1[8:1],4,
{8}5-8[8:1],6,4-1[8:1],3,5-8[8:1],6,3,2,
{8}1-5[8:1],8-4[8:1],1-3[8:1],8-6[8:1],1,8,1,7,
{8}4b/5b,4b/5b,4bV68[8:1]/5bV31[8:1],4b/5b,,,2x/7x,,
{16}2/7,,,,1,,7,5,6,,3,4,2,,6,5,
{48}8,,,,,,3,,,4,,,1,,,,,,6,,,5,,,7,,,,,,3x,,4x,,5x,,6xp2[8:1],,,,,,,,,,,,
{16}8,,,,1/7,,3,4,2,,6,5,7,,3,4,
{16}3,,7,8,7,,6,5,7h[8:1],,5h[8:1],,4h[8:1],,2,,
{16}1,,,,8,,2,4,3,,6,5,7,,3,4,
{48}1,,,,,,6,,,5,,,8,,,,,,3,,,4,,,2,,,,,,6x,,5x,,4x,,3xq7[8:1],,,,,,,,,,,,
{16}1,,,,2/8,,6,5,7,,3,4,2,,6,5h[16:5],
{16}6,,7,,7,,6,5,,3,4,,2/5,,,,
{16}6/8,,,2/4,,,1/5,,6-8[8:1],,6V42[8:1],,6,,,,
{8}7qq7[4:1],7,1qq4[8:3],1,,,5,5,
{8}5h[4:1],,4-2[8:1],4V68[4:1],,,2-6[8:1],2,
{16}8V64[8:1],,8,,,,,,1,,B7,C1,B3,,8,,
{16}1/8,,7,5,6,,2,4h[16:7],3,,2,2,,1,1,,
{16}5,,2,4,3,,7,5h[16:7],6,,7,7,,8,8,,
{8}4,3/5,2/6,1/7,5,4/6,3/7,8b,
{8}2/7,3/6,1-6[8:1]/8-3[8:1],3<8[4:1]/6>1[4:1],,,,,
{32}3h[4:1],,,,,,,,8b,7,6,5,,,,,6h[4:1],,,,,,,,1b,2,3,4,,,,,
{32}2/7,,,,,,,,4/5,,,,2/7,,,,3/6,,,,,,,,1b/8b,2/7,3/6,4/5,,,,,
{32}2/4,,,,6,,,,6-3[8:1]/7-2[8:1],,,,,,,,,E7,C1f,E3,,,,,1x,,,,,,,,
{8}8,8,1,1,2/4,4/5,5/7h[1:2],,
{32}1,,,,,,,,B8,B7,E7,,,,,,E3,B3,B4,,,,,,E1,B8,B7,,,,,,
{32}E5,B3,B4,,,,,,B8,B7,E7,,,,,,E3,B3,B4,,,,,,E1,B8,B7,,,,,,
{8}1,1,2/8,3/7,2>5[8:1]/8<5[8:1],3/7,2/8,,
{8}8,8,1/7,2/6,1>4[8:1]/7<4[8:1],2/6,1/7,,
{8}3/4-1[4:5],3,3,3,2,2,2,2,
{8}3,3,3,3,2h[4:1],,4b,,
{8}5-8[4:5]/6,6,6,6,7,7,7,7,
{8}6,6,6,6,7h[4:1],,C1f,,
{8}8,8,7,7,6,6,5,5,
{8}4,4,3,3,2,2,1,1,
{16}2,2,3,3,4,4,5,5,6,6,7,7,8,8,1,1,
{32}8,7,6,5,4,3,2,1,8,7,6,5,4,3,2,1,8,7,6,5,4,3,2,1,8x>3[8:1],7xv4[32:3],6x,5x,4x,,,,
{32}7b/8b,E1,C1f/E2,E3,,,,,,,,,,,,,,,,,,,,,,,,,,,,,
{16}3,3,4,,2/5,,6,6,5-2[8:1]*-8[8:1],,4/7,,5x,,,,
{16}2>5[8:1],,,6,2pp2[4:1]/6x,,7,,8,,8,,8x,,,,
{16}5>2[8:1],,,6,5qq5[4:1]/6x,,7,,8,,8,,8x,,,,
{16}1>4[8:1],,,6,1pp1[4:1]/6x,,7,,8,,8,,8x,,,,
{16}3/7,,,4/8,4x/8x,,3/7,,3/7,,2/6,,2/6,,1/5,,
{4}4x<8[4:1]/8x>4[4:1],4xV63[4:1]/8xV27[4:1],,,
{16}7<4[8:1],,,3,3x/7qq7[4:1],,2,,1,,1,,1x,,,,
{16}4<7[8:1],,,3,3x/4pp4[4:1],,2,,1,,1,,1x,,,,
{16}8<5[8:1],,,1,1x/8qq8[4:1],,2,,3,,3,,3b,,,,
{24}4xh[8:1]/8xh[8:1],,,,3x/7x,2x/6x,1xh[8:1]/5xh[8:1],,,,2x/6x,3x/7x,4xh[8:1]/8xh[8:1],,,,3x/7x,2x/6x,1xh[8:1]/5xh[8:1],,,,2x/6x,3x/7x,
{24}4xh[8:1]/8xh[8:1],,,,3x/7x,2x/6x,1xh[8:1]/5xh[8:1],,,,2x/6x,3x/7x,4xh[8:1]/8xh[8:1],,,,3x/7x,2x/6x,1xh[8:1]/5xh[8:1],,,,2x/6x,3x/7x,
{24}4xh[8:1]/8xh[8:1],,,,3x/7x,2x/6x,1xh[8:1]/5xh[8:1],,,,2x/6x,3x/7x,4xh[8:1]/8xh[8:1],,,,3x/7x,2x/6x,1xh[8:1]/5xh[8:1],,,,2x/6x,3x/7x,
{24}4xh[8:1]/8xh[8:1],,,,3x/7x,2x/6x,1xh[8:1]/5xh[8:1],,,,2x/6x,3x/7x,4xh[8:1]/8xh[8:1],,,,3x/7x,2x/6x,1x/5x,,,,,,
{4}2>5[8:1]/6-8[8:1],2pp2[4:1]/6x,6-8[8:1],6x,
{4}5>2[8:1]/6-8[8:1],5qq5[4:1]/6x,6-8[8:1],6x,
{4}3-1[8:1]/7<4[8:1],3x/7qq7[4:1],3-1[8:1],3x,
{4}3-1[8:1]/4<7[8:1],3x/4pp4[4:1],3-1[8:1],3x,
{8}6h[4:1],,1,1-3[8:1],5-7[8:1],1,5,,
{8}1h[4:1],,8,8-6[8:1],4-2[8:1],8,4,5x,
{8}5xh[4:1],,4,4-2[8:1],8-6[8:1],4,8,,
{8}4xh[4:1],,5,5-7[8:1],1-3[8:1],5,1,8x,
{8}8xh[4:1],,3,3-5[8:1],7-1[8:1],3,7,,
{8}3h[4:1],,6,6-4[8:1],2-8[8:1],6,2,3x,
{8}3x,,4/6,5,5,4,3/6,,
{16}1x,8,1,8,2x,8,3,8,4x-1[8:1],8,4,8,4x,,,,
{1},
{1},
{1},
E
&inote_6=(160){1},
{8}1pp2[8:1],2,8p4[8:1],7,1v3[8:1],2,7<3[16:3],6,
2h[4:1],,1<6[8:1],8,2v5[8:1],2v7[8:1],,,
4>1[8:1],3,6v8[8:1],5,2v4[8:1],3,7xb-3[8:1],,
4x-6[8:1],4x,7-3[8:1],7,4-1[8:1]*>2[8:1],,4,,
8qq7[8:1],7,1q5[8:1],2,8v6[8:1],7,2>6[16:3],3,
7h[4:1],,8>3[8:1],1,7v4[8:1],7v2[8:1],,,
5<8[8:1],6,2>5[8:1],3,1q5[8:1]*v6[8:1],8,1,,
{16}4,7,1,,35,,8,2,{8}5-1[8:1]*-8[8:1],17,5b,,
6h[8:3],,4-2-5-1-6[8:4],3h[8:3],,,,3,
4-2-5-1-6[8:4]b,,6,7,8h[4:1],,,,
58,67,58,67,5-1[8:1]/8-4[8:1],,58,,
23,23,14,23,1>4[8:1]/4<7[8:1],,14,,
{32}E5,B4,B3,E3,,,,,E6,B6,B7,E8,,,,,E5,B4,B3,E3,,,,,E6,B6,B7,E8,,,,,
E5,B4,B3,E3,,,,,E6,B6,B7,E8,,,,,E5,B4,B3,E3,,,,,E6,B6,B7,E8,,,,,
{24}5x,4x,3x,5x,6x,7x,5x,4x,3x,5x,6x,7x,5x,4x,3x,5x,6x,7x,5x,4x,3x,5x,6x,7x,
{8}E2f/8xb,E2f/8xb,E2f/8xb,E2f/8xb,1xw5[8:1],,1b,,
B2/B5/E3/E5,,{16}2,,2,4,3,,3,1,4,,4,1,3,,3,4,2,,2,1,2,,3qq5[8:2],4,{4}3,,
{16}7,,7,5,6,,6,8,5,,5,8,6,,6,5,7pp5[8:4],,8,,{8}4h[32:1],4h[32:1],4h[32:1],4h[32:1],
{64}E4,B3,B2,E2,A1,,,,{8},
{16}1x/4,,1,4,1,,1,,8,,8,5,8,,8,,14,,1,4,1>8[8:2]b,,1,,{2}4q5[8:2],
{16}8,,8,5,8,,1,4,1,,1,,
26,,26,,37,,6,4,5,3,4,,1-3[8:1]/8-5-8-6-4[8:5],,,,
18,,,A5,,,A8,,{4}3-8-2[16:3],5-8-6[16:3],4-1-3[16:3],5-1-6[16:3],
{8}4,4,3,2-5-3[16:3],,,8-5-7[16:3],8,1-5-2[16:3],1,8,8,
{16}7,,6,1,6,,45,,38,,2,6,2,,1,,
28,,7,1,6,,4,5,3h[8:1],,1,3h[8:1],,8,3,,
47,,3,5,2,,8,1,7h[8:1],,5,7h[8:1],,4,7,,
3,4,3,4,2,5,2,5,1,6,1,6,8,7,8,7,
{8}1b-6[8:1],6b-2[8:1],2b-5[8:1],5bw1[8:1],{2},
{4}1>4[8:1]/8,{32}8,7,6,5,{8},8<5[8:1],1,{32}1-5[8:1]/8,2,3,4,{8},15,,2-6[8:1]/7-3[8:1],18,2b/7b,,4h[8:3]/8,,7,7,8,1,{32}3xb/2xb,4x-6-3[8:1]/1x-7-2[8:1],8x/5x,7x/6x,
{8},,,B3/B4,B1/B2,B5/B6,B7/B8,1-4-1[4:1]b,,4b,,
5xh[1:2],,8,4,1,6,8,4,1,6,8,4,1,6,8,4,
1pp4[8:2],2,8-5[8:1],7,8,2,1<7[8:1],,
1-4[8:1],5,1-6[8:1],6,1>5[8:1],4,1b,,
{16}6,,6,5,6,,6,,6,,6,5,6,,6,,6,5,6,5,6,,6,,5/6-8[8:1],,47,,,,,,
3,,3,,34,,3,,3,,3,4,3,,3,,3,,3,4,3,4,3,,3-1[8:1]/4,,2,,,,,,
{4}3-1[8:1]/6,3/6-8[8:1],3-1[8:1]/6,3/6-8[8:1],
{8}3-1[8:1]/6,4,36,5,3>1[8:1]/6<8[8:1],4,36,,
{8}4-2[8:1],3,5-7[8:1],6,4-2[8:1],3,5,6,
1-5[8:1],8-4[8:1],1,8,{32}1h,2,3,4x,8h,7,6,5x,8h,1,2,3x,7h,6,5,4x,
{48}7b,E8,E1,E2,E3/D3f,,{8},,,,,,,
{16}4-1[8:1],6,1,,45,,8-5[8:1],2,4w8[8:1],,18,,4,,,,
2b-6[8:1]/6b,,,5,{8}2/5-8[8:1],4-1-4[8:2],5,4,,8,
{16}5<8[8:1],,,1,{8}1>4[8:1]/5,2,1v4[8:1]/6pp8[8:1],7,16,,
{16}7b-3[8:1]/3b,,,4,{8}7/4-1[8:1],5-8-5[8:2],4,5,,1,
{16}4>1[8:1],,,8,{8}8<5[8:1]/4,7,38,2,1/5x,48,
{4}7>5[32:6]/3<1[32:6],,2x-7[8:1]/6x-3[8:1],26,B1/B2/B3/B4/B5/B6/B7/B8,4-1[8:1]/5-8[8:1],4b/5b,,
{16}7b-3[8:1]/3b,,,4,{8}7/4-1[8:1],5-8-5[8:2],4,5,,1,
{16}4>1[8:1],,,8,{8}8<5[8:1]/4,7,8v5[8:1]/3qq1[8:1],2,83,,
5x<8[8:1],6,1xp4[8:1],2,8x<5[8:1],7,4xq1[8:1],3,5x<8[8:1],6,1xp4[8:1],2,8x<5[8:1]*v3[8:1],7,8x,,
4x>1[8:1],3,8xq5[8:1],7,1x>4[8:1],2,5xp8[8:1],6,4x>1[8:1],3,8xq5[8:1],7,1x>4[8:1]*v6[8:1],2,1x,,
2>5[8:1],1,8q5[8:1],7,1p4[8:1],2,7<4[8:1],8,1>4[8:1],8,7q4[8:1],6,8v5[8:1]*>3[8:1],1,8,,
7<4[8:1],8,1p4[8:1],2,8q5[8:1],7,2>5[8:1],1,8<5[8:1],1,2p5[8:1],3,1v4[8:1]*<6[8:1],8,1,,
{8}
3s7[8:2]/5,,7z3[8:3]b,7,,8,8,,
6z2[8:2],,2s6[8:3]b,2,,1,1,2,
3s7[8:2],,7z3[8:4]b,7,,8,8,,
6z2[8:2],,2s6[8:4]b,2,,1,1,2,
3s7[8:2],,7z3[8:5]b,7,,8,8,,
6z2[8:2],,2s6[8:5]b,2,,1,1,2,
3s7[8:2],,7z3[8:5]b,7,,8,8,,
6z2[8:2],,2s6[8:2],2,,1-5[8:1],1b,,
{1},
