&title=セレナーデ
&artist=なとり
&first=0
&des=Electro Swing
&lv_5=13+
&inote_1=(137)
{4},,,,
E
&inote_5=(137)
{4},,,,
{4}7qq5[32:5]/2p4[32:5],,
{8}A6,E3/B3,E8/A8/D8,A5/D5/A4/E5,
{24}7b/3b,,,6,,6p4[32:7],,,3,,,1h[24:4],{16},,,,3,,24,,
{24}6,,6,5,,,73,,,2-6[32:4],,,1-7[32:3],,,2x-4[32:3],,,1x-5[32:4],,,2x,,,
{24}1x,,,3,,3q5[32:7],,,6,,,8h[24:4],{16},,,,6-2[32:3],,75,,
{16}3-7[32:3],,,,8w4[32:3],,,,,,,,,,,,
{16}3h[8:1]/5,,,,2h[8:1]/B4,,,,3h[24:5]/5,,{24},,4,{24}3,,3,5,,,
{16}6h[8:1]/4,,,,7h[8:1]/B5,,,,6h[24:5]/4,,{24},,5,{24}6,,6,4,,,
{16}3h[8:1]/5,,,,2h[8:1]/B4,,,,3h[24:5]/5,,{24},,4,{24}3,,3,5,,,
{16}6h[8:1]/4,,,,7h[8:1]/B5,,,,64,,{24}53,,,{24}2,4,2,4,,,
{16}5h[8:1]/3,,,,2h[8:1]/B4,,,,8h[24:5]/1,,{24},,2,{24}4,,4,3,,,
{16}5h[8:1]/6,,,,7h[8:1]/C,,,,1h[24:5]/8,,{24},,7,{24}5,,5,6,,,
{8}4h[8:1]/3h[8:1],,7h[8:1]/5h[8:1],,2h[8:1]/1h[8:1],,8-4[8:1],,
{8}4-2>3s7b[32:16],,,,,,3,2,
{16}1b/4b>8[32:5],,,,4/8,,,,{24}7,,7,6,,6,5,,5,4,,4,
{16}3>7[32:5],,,,37,,,,{24}6,,6,5,,5,4,,4,3,,3,
{16}2<6[32:5],,,,26,,,,{24}5,,5,4,,4,3,,3,2,,2,
{32}1<5p4[32:12],,,,,,,,1/6h[8:3],,,,,,,,,,,,,,,,
{24}7,,7,5,,5,
{16}6h[4:1],,8,,5h[4:1],,4,,{24}6-4-8[32:7],,6,,,4,,,,2,,,
{16}3h[4:1],,1,,4h[4:1],,5,,{24}3qq5[32:8],,3,,,5,,,,7,,,
{16}8-5[8:1],,3,,2,,1,,8-4[8:1],,5,,6,,7,,
{16}8-3[8:1],,,,5w1[8:1],,,,5,,,,7h[4:1],,,,
{16}3,,24,,6,,5/7>2[32:5],,4,,3,,4,,5,,
{16}6,,75,,3,,4/2<7[32:5],,5,,6,,5,,4,,
{8}3,24,6,5/7-5-8-4[32:11],4,8,3,1,2-8-4-6[32:11],,,,,,
{16}7>2[32:9],,,,,,,,3p6[32:11],,,,,,,,7p2[32:11],,,,,,,,3<6[32:9],,,,,,,,C,,,,
{16}78,,65,,34,,21,,{24}3,,3,8,,8,2,3,4,7,6,5,
{24}34,,43,,,1,8,,,6v5-3[32:7]/5,,65,,,,,,,,,,,,,
{32}1b-6[8:1],2b-6[32:3],3b,4b,,,,,21,,,,{24},,3,5-1[32:3],,4,,,56,,,,7,,,
{16}2-6[32:3]/6-1[32:3],,,,2/6,,{24},,8,5-3-7[32:6],,6,,,35,,,,2,,,
{24}1h[8:1],,,8,,2-5[32:3],,,35,,,26,,,,8,,,76,,,5,,,
{16}4v2[64:7]/8v6[64:7],,,,,,{24},,3,5-2[32:3],,4,,,56,,,,1,,,
{32}8b-3[8:1],7b-3[32:3],6b,5b,,,,,78,,,,{24},,6,4-7[32:3],,5,,,43,,,,2,,,
{16}8<5[32:3]/3>8[32:3],,{24},,,38,,,{24},,1,4-8[32:3],,3,,,45,,,,6,,,
{16}7h[24:3]/1h[24:3],,,4h[24:3]/3h[24:3],,,5h[8:1]/6h[8:1],,,3h[8:1]/7h[8:1],,,1h[8:1]/5h[8:1],,,8/4q5[32:9],,,,,6,,8h[16:6],,,,6,,7-3[32:3],,,,
{16}7b/2-6[32:3],,,,2b/5-1[32:3],,,,5b/3-7[32:3],,,,3b/8w4b[32:3],,,,
{48}8b,B8,Cf,B4,,,{16},,62,,
{24},,1,4-6-2[32:6],,3,,,64,,,,7,,,
{24}8h[8:1],,,1,,7-4[32:3],,,64,,,78,,,,1,,,2-4-8[32:7]/5-3-8[32:7],,,7,,,
{24}52,,,,,,,,,,,6,4-7[32:3],,5,,,43,,,,8,,,
{32}1b-6[8:1],2b-6[32:3],3b,4b,,,,,21,,,,{24},,3,5-2[32:3],,4,,,56,,,,7,,,
{16}1>4[32:3]/6<1[32:3],,{24},,,61,,,{24},,8,5-1[32:3],,6,,,54,,,,3,,,
{16}2>5[32:3],,,2/1,,,7-3[32:3],,,57,,,4-8[32:3]*-1[32:3],,,4,,,,,7,,3/6>3[8:1],,,,2pp5b[32:14],,1qq6[32:10],,,,,,,,{16},,,,
7b/4b,,,,1>4[32:3]/2,,8,,71,,6,,8-4[32:3]/7,,1,,28,,3,,2/1-5[32:3],,6-8[32:3],,1-3[32:3],,6,,1,,5,,
{16}64,,7,,8-4[32:3]/1-5[32:3],,2,,81,,,,63,,7,,1/8-4[32:3],,7,,6-2[32:3],,5,,4-8[32:3],,3,,2-6[32:3],,1,,
{16}8b,,,,8<5[32:3]/7,,1,,28,,3,,1-5[32:3]/2,,8,,71,,6,,7/8-4[32:3],,3-1[32:3],,8-6[32:3],,3,,8,,4,,
{16}3-8[32:3]/5,,2,,4-7[32:3],,5,,{24}1,,1,,,28,{16},,3,,2pp1[32:8]/4,,1,,28,,6,,7-5[32:3],,,,4pp1>3[32:14],,,,
{24}8b,,,,,,,,,,,,{16}6,,57,,3,,24,,
{24}6,,6,5,,,74,,,1,,,25,,3,4x,,5,4x,,3,4x,,5,
{24}4b,,,37,,37,,,5b/6b,,,2,1,,1,3,,25,,,7,8,,8,
{24}6b,,,2,,3b/4b,,,6,5b/7b,,,2,3,4,1,8,7,3,4,5,8,7,6,
{16}2bpp5[32:18],,2,,6,,6,,7,,7,,8,,8,,1-6[32:3]/5x-2[32:3],,,,1-4[32:3]/5-8[32:3],,,,15,,,,7>2b[32:30]`3<6[32:3],,,,3b,,,,,,,,,,,,,,,,,,
E
&inote_6=(137)
{4},,,,
{4},,
{8}54,46,47,48,
{16}7b/3b,,4,5,3,,26,,3h[4:1],,4,,6h[4:1],,5,,
{16}2h[4:1],,4,,7h[4:1],,5,,4,,35,,36,,37,,
{16}38,,4,5,3,,26,,3h[16:4],,4,,6h[4:1],,
{16}5,,3-5[8:1],,,,7-3[8:1],,,,1w5[8:1],,,,,,,,
{16}3h[8:1],,4,,3h[8:1],,5,,3h[8:1],,6,,3h[8:1],,7,,
{16}3h[8:1],,8,,3h[8:1],,1,,3-5[8:1]/8-5[8:1],,,,,,,,
{16}6h[8:1],,5,,6h[8:1],,4,,6h[8:1],,3,,6h[8:1],,2,,
{16}6h[8:1],,1,,6h[8:1],,8,,6q4[8:1]/1-4[8:1],,,,,,,,
{16}2h[8:1],,4,,2h[8:1],,5,,2h[8:1],,6,,2h[8:1],,8,,
{16}2h[8:1],,3,,2h[8:1],,5,,2pp4[8:1]/7<4[8:1],,,,,,,,
{8}3h[8:1],,3h[8:1]/7h[8:1],,2h[8:1]/6h[8:1],,1h[8:1]/5h[8:1],,
{8}4h[2:1]/8qq2[16:6],,,,,,35,2,
{16}1/4>8[8:1],,,,4/8,,,,{24}7,,7,6,,6,5,,5,4,,4,
{16}3>7[8:1],,,,37,,,,{24}6,,6,5,,5,4,,4,3,,3,
{16}2<6[8:1],,,,26,,,,{24}5,,5,4,,4,3,,3,2,,2,
{32}1<5[16:2]*pp5[4:1],,,,,,,,1,,,,,,,,,,,,,,,,
{24}3,,3,4,,4,
{16}2h[8:1],,3,,4h[8:1],,3qq4[16:4],,7,7,,5,,,6,,
{16}7h[8:1],,6,,5h[8:1],,6pp5[16:4],,2,2,,4,,,3,,
E
