&title=德川杯面禁止令
&artist=Mitchie M
&first=0.85
&des=ホシノ譜面創作禁止令
&des_5=ホシノ譜面創作禁止令
&lv_5=13+
&inote_5=(178)
{8}4,5,3,6,2,7,1,8,
{16}A2,D3,A3,D4,A8,D8,A7,D7,1,2,3,4,5b/Cf,,,,
{16}6<1[8:1],,,,3>8[8:1],,,,5q2[8:1],,,,4,,3h[2:1],,,,1-7<6[8:1],,,,1,,2v5[8:1],,B7/B8,,2,,,,
{16}3>8[8:1],,,,6<1[8:1],,,,4p7[8:1],,,,5,,6h[2:1],,,,8-2>3[8:1],,,,8,,7v4[8:1],,,8,7,,2,,
{16}3>1[8:1],,,,6<8[8:1],,,,4p8[8:1],,,,5,,6h[2:1],,,,1-3<4[8:1],,,,1,,7-5[8:1],,7-3[8:1],,,,,,
{16}6<8[8:1],,,,3>1[8:1],,,,5q1[8:1],,,,4,,3h[2:1],,,,8-6>5[8:1],,,,8,,
{32}Ch[4:1],,,,,,,,B2/B3/B7/B6,E7/E3,D3/D7/A2/A7/A3/A6,,,,,,
{8}1<6[8:1],,5-8[8:1],,2-6[8:1],,2,8-4-7b[4:1],,8,,3,2,C,C,8>1-5[4:1],,5<7-3[4:1],4-2[8:1],,4,,1,8>1V72p4[2:1],,,,,,,
{48}B1,B8,E8,A7,,,,,,,,,
{8}1bv6[8:1],,1/D8/E8,,2>5[8:1],,2/E7/D7,8xh[8:5],,3,,2,1-5[8:1],,
{48}A1,E1/E2,B1,C,B5,A5,,,,,,,
{32}2x/7x,3x/6x,4x/5x,,,,,,2x/7x,3x/6x,4x/5x,,,,,,2x/7x,3x/6x,4x/5x,,,,,,2x/7x,3x/6x,4x/5x,,,,,,
{16}1bh[4:3],,,,,,,,
{32},,,,B8f,,E8f,,,B7f,,A7f,,,,,
{8}5q1>2b[8:1]*p1<8b[8:1],,,,5-1[8:1]*v2[8:1],,,,4<8[8:1]*>8[8:1],,4<5v4q8[8:3]*>3v4p8[8:3],,,,,,6<2b[4:1],,2v4b[4:1],,4V28[4:1],,8V64[4:1],,4,,3,,
{64}2b,E3,B3,B4,B5,B6,E7,,,,,,,,,,
{4},
{8}3-6[2:3],8,B1/E2,7,7h[8:1],,8,1,2,A8/D1,2,D8/A7,3,8b,8b,,
{8}7-2[8:9],4,B5/E6,3,3h[8:1],,5,4,7h[8:1],,6,6h[8:3],
{48}D5,A4,D4,A3,,,,,,,,,B4,B3,B2,E2,,,,,,,,,
{8}4<7[8:1]/6>3[8:1],,4p6[4:1]/6q4[4:1],,,,,,8-5[8:1],8-4-1[4:1],8,,6>6[4:1],,6,,Cf,,1-5[8:1],,1,,7-2-4<5-7b[4:3],,7,1x,1x,1x,1x,1x,1x,1x,
{8}2/B8/E8,,2/A7/B7,,3/B8/E8,,3/A7/B7,,4/B8/E8,,4/A7/B7,,3/B8/E8,,3/A7/B7,,
{8}4h[4:1]/Ch[4:1]/B6/B5,,,,6h[4:1]/Ch[4:1]/B3/B4,,,,2h[8:1]/Ch[8:1]/B8/B7,,7h[8:1]/Ch[8:1]/B1/B2,,1h[8:1]/Ch[8:1]/B7/B6,,8h[8:1]/Ch[8:1]/B2/B3,,
{8}1h[16:1]/Ch[16:1],1h[16:1]/Ch[16:1],2h[16:1]/Ch[16:1],2h[16:1]/Ch[16:1],3h[16:1]/Ch[16:1],3h[16:1]/Ch[16:1],4h[16:1]/Ch[16:1],4h[16:1]/Ch[16:1],
{16}4h[16:1],5h[16:1],4h[16:1],5h[16:1],3h[16:1],6h[16:1],3h[16:1],6h[16:1],1qq1b[8:1]*pp1b[8:1],,,,Cf,,,,
{8}4p7[8:1],,5q2[8:1],,3>8[8:1],4,3,7<4[8:1],,7/8,1,2,3h[4:1],B1/E2,4h[4:1],B1/E2,
{8}3v8[8:1],7-4[8:1],3,7,
{16}2q6[8:1],2,,1,2,,8bV61[4:1],,,,1-5[8:1],,2,,3,,4-8[8:1]*-7[8:1],,,,4,,,,
{8}5q2[8:1],,4p7[8:1],,6<1[8:1],5,6,2h[4:1],,1,1-3[8:1]/8-4[8:1],7,1-5[8:1]/8-6[8:1],,1/8,,
{8}6xv1[8:1],2-5[8:1],6,2,
{16}7p3[8:1],7,,8,7,,1bV38[4:1],,,,8-4[8:1],,7,,6,,5-1[8:1]*-2[8:1],,,,
{32}5,Cf,,,,,,,
{8}8<4[4:1],,4,2,1>5[4:1],,5,7,1<5[4:1],,4,2,8>4[4:1],,4,6,
{8}7-4[4:1],,4-8[4:1],,8-3[4:1],,3>5[2:1],,1h[4:1],,,,2h[4:1],,4,,
{8}3h[16:1]/7h[16:1],,2h[16:1]/6h[16:1],,3h[16:1]/7h[16:1],,4/8,4/8<5[8:1],,4V68b[4:1]/8,3,2,1,2,3b,,
{384}E8f,B7,B8,,,,,,,,,,,,,,,,,,,,,,,,,,,,,,,,,,,,,,,,,,,,,,
{16}5,6,5h[8:1],,,,B1/E2f/B2,,4,3,4h[8:1],,,,
{16}2bx/5bx,,,3bx/6bx,,,4bx/7bx,,5bx-2[8:1]*-8[8:1]/6bx,,,,,,,,
{12}A1,E1,E8,C,B6,A6,A3,E4,E5,A7,B7,C,A8,E1,E2,
{8}6h[4:1],,5h[4:1],,4h[4:1],,
{8}3h[2:1],,A7/B7,,5h[2:1],,A2/B2,,4h[4:1],,8w4[4:1],,,,,,
{8}6h[2:1],,A2/B2,,4h[2:1],,A7/B7,,5h[4:1],,1w5[4:1],,,,,,
{4}4-6[4:1],6-3[4:1],3-7[4:1],7-2[4:1],2-6[4:1],6-3[4:1],5h[4:1],,
{64}D1,,E1,,B8,B1,,B2,B7,,C/B6/B3,,A6/A3,,B5/B4,,E6/E4,,D6/D4,,,,,,,,,,,,,,
{8}8bx,,2pp4>2b[2:1],7qq5<7[8:3],,,,,,,,,
{4}Ch[4:3],,,,
{4}1bx/8bx,A8/E1/E2/A2f/A7/B7/C/B4/E5/A5,3bx/6bx,A7/E8/E1/A1/A6/B6/Cf/B2/A2/A8/B8/B4/A4/D5/A5/B5/E4/A3,1bx/8bx,D8/A7/D7/A6/D6/E6/B1/B2/B3f,3bx/6bx,A8/D1/A1/E1/A7/E8/B8f/B1/E2/A2/B2/C/B4/D4,
{8}1bx,1bx,8bx,8bx,2b,2b,7b,7b,
{16}4b,5b,4b,5b,3b,6b,3b,6b,2b,7b,2b,7b,A8/D1f/E1/A1/B8/B1,,,,
{8}5q2[8:1],,4p7[8:1],,6<1[8:1],,6,2>5[8:1],,2/1,8,7,6h[4:1],B8/E8,5h[4:1],B8/E8,
{8}6v1[8:1],2-5[8:1],6,2,
{16}7p3[8:1],7,,8,7,,1bV38[4:1],,,,8-4[8:1],,7,,6,,5-1[8:1]*-2[8:1],,,,5,,,,
{8}8<4[8:1]*>4[8:1],,8-4[8:1],,8x/3xV58[4:1],,3,6h[4:1],,1,1-3[8:1]/8-4[8:1],7,1-5[8:1]/8-6[8:1],,1/8,,
{8}3v8[8:1],7-4[8:1],3,7,
{16}2q6[8:1],2,,1,2,,8bV61[4:1],,,,1-5[8:1],,2,,3,,4-8[8:1]*-7[8:1],,,,
{32}4,Cf,,,,,,,
{8}7x-5[8:1],8,7,1,2-4[8:1],1,2,8,7<5[8:1],8,7,1,2>4[8:1],1,2,8,7-4[8:1],8,7,1,2-5[8:1],1,2,8,3x-6-8>1-3b[8:5]/6x-3-1<8-6b[8:5],,,,,,,,
{8}2h[16:1]/5h[16:1],,4h[16:1]/7h[16:1],,2h[16:1]/5h[16:1],,5/1,5/1>4[8:1],,5V31b[4:1]/1,6,7,8,7,6b,,
{384}E8f,B7,E2f,B2,,,,,,,,,,,,,,,,,,,,,,,,,,,,,,,,,,,,,,,,,,,,,
{16}5,4,5h[8:1],,,,A7f/A2f/D7/D3,,4,5,4h[8:1],,,,
{16}3bx/7bx,,,2bx/6bx,,,1bx/5bx,,
{32}4bxw8[8:1]/A8f,D1,A1,D2,A2,D3,A3,D4,A4,,,,,,,,
{8}6-1[8:1],6,2-5[8:1],2,8-3[8:1],8,4,4>1[8:1],,4<7[8:1]/7,,4/8x,1,2,3h[8:1],,
{8}3-8[8:1],3,7-4[8:1],7,1-6[8:1],1,5,5,Ch[4:3],E2/B1,,B8/E8,
{16}B7,,,E7,B6,,B5,,
{8}3-8[8:1],3,7x-4[8:1],7,1-6[8:1],1,5x,5<8[8:1],,5>2[8:1]/2,,5/1x,8,7,6h[8:1],,
{8}6-1[8:1],6,2x-5[8:1],2,8-3[8:1],8,4x,4h[2:1],,5,3,6,
{16}E3f,E7f,Cf,,,,,,
E
