&title=Philosophyz (Game Size Ver.)
&artist=水谷瑠奈; VISUAL ARTS; Key
&first=1.645
&des=死·秋刀·鱼
&lv_5=14
&inote_5=(160)
{4}3/8-5[4:1],,,
{8}4/2-4>8[2:1],,,,,,6,,7,,
{8}4/8,3,2,6/1,7,8,1/5,3/8,2/6,1/7,3/5,4/8,
{16}3,2,8,7,2,1,7,6,5/3p2[4:1],,
{8},7,6-4[8:1],,6-1[16:2],1,2>5[16:3],,2,8,7h[8:3],,5,4,3,2xqq5[8:3]/6,,,4,6,7,8,
{32}1x,8,7,6,5,4,3,2,1-5b[8:1],8,7,6,5,,,,
{16}1,,7,,3,3,8>7[8:3],,
{16}2,2,
{8}8,,,,8-4[8:1]/2,1,8/6,5,7b<4[16:3],
{16},3V15[16:4],,,3,,,,8,,7-4[8:1],,4-8[8:1],,,,,,2pp4[16:2],,,,8<5[8:1],,,,
{16}3>1[8:1],,,,3x,,4,4,8,,8,,7,,8q4[8:1]*>3[8:1],,6,,8,,,,
{16}6,,5w1[8:1],,,,,,,,3/7,,1,,8qq4[8:3],,,,,,2,,2h[4:1],,,,5-1[8:1],,1,,,,
{16},,8-4[8:1],,2x,3,4pp7[16:8]/8,,,,3,,,,1h[8:1],,,,,,8h[8:1],,5q2[16:3],,,,
{16}3,,3>8[8:1],,,,
{8}4,6-1[8:1],,6>4[16:2],,2,,3b-8[16:2],
{16},7V51[16:4],,,7,,,,4,,3-8[8:1],,8-4[8:1],,,,,,6pp8[16:2],,,,4>1[8:1],,,,
{16}7<5[8:1],,,,7x,,8,8,4,,4,,1,,4V68[8:1]*<7[8:1],,2,,4,,,,
{16}2,,1w5[8:1],,,,,,,,6/2,,8,,1pp5[8:3],,,,,,7,,7h[4:1],,,,4-8[8:1],,8,,,,
{16},,1q5[16:4],,7x,6,5q3[16:4]/1,,,,6,,8bxh[4:1],,,,,,7,,8,,1,4-1[8:1],1,,2,,2xh[4:1],,
{16},,8,,8,,8,,8,1,4,3,7,8,5,4,
{8}6p7p1p3p4p6b[8:13],3,3h[4:1],,,,2x,2x,,,,,1x,1xh[4:1],,,4,4,5/3,,2-5[8:1]/4,,1qq5[2:1]/2,1,,,,,
{16}4,3,2,,
{8}6,,1qq2V83b[8:11],5,5h[4:1],,,,4,5,,,,,6,5h[4:1],,,6q3[4:1],6,3>7[8:3],,5,,
{8}4,3h[4:1],,,
{16}8x,7x,6x,5x,1,8,7,6,2,1,8,7,
{8}6/2,3qq1p4b[8:8]/5,3/5h[4:1],,,,6,6,,,7p2[4:1],,2v4[4:1],3,,,
{8}1,1,1<5[16:3]/8,,3-8[8:1]/1,,4xpp8[2:1]/3,4,,,,,
{16}1,2,3h[4:1],,
{8},,
{256}6pp1b[8:3]*pp1b[8:3],1pp4[8:3],
{128},,,,,,,
{16},
{8}8/4,1/6,,,,8<5[8:3]/3,2,,5>3[8:2],,3>1[8:2],,1<7[16:3],,,3p6[4:1],3,6<2[8:3],,4,,
{8}5,6h[4:1],,,
{16}1x,2x,3x,4x,8,1,2,3,7,8,1,2,
{16}3/7,,8-5[8:1],,4>1[8:1],,8,,4,,,,6x,,8x-4[8:1],,,,1,,2,,3xpp8b[16:4]/5xpp8b[16:4],,,,,,,,,,
{16}1x-5-2[16:3],,,2<6[16:3],,,3x,,4-1[8:1],,,,5,,7-2[8:1],,,,6-3[8:1],,,,5w1[8:1],,,,,,,,,,
{16}6/2,,1>4[8:1],,5-7[8:1],,1,,5,,,,3x,,1x-5[8:1],,,,8,,7,,6xh[4:1]/4xV62[16:3],,,,,,7,,8,,1>7[8:3],,,,,,7<3b[8:2],,8h[8:2],,,,,,1-5[8:1],,,,1,,
{16}8-2[8:1],,,,7-3[8:1],,,,6-4[8:1],,,,6/1,,1,,1,,8pp5[8:3],2,7,,3-8b[8:1],,,,3bx,,,,
{16}4bh[16:6],,7b,,,,5-1[8:1]*-2[8:1],,,,5,,,,
{16}7V58[16:3],,8x,8x-4[16:2],7,,1>3[8:1],,,,1<7[8:1],,,,5xp1[8:1]/1,,,,
{16}6V84[16:3]/5,,,,3>5[4:1]/6,,,,3,,,,,,
{16}8-3[8:1],,3-7[8:1],,8,,4>1[8:1],,,,4/6-2-8b[16:4],,,,8b<5[16:2],,,,4xv7[8:1],,3,,1h[4:1],,,,
{16},,6<2[8:1],,3,,1V74b[16:4],,,,,,3,,2,,
{16}7x,,8x,,1/5,,,,6,,2>4[8:1],,7,,2-5[8:1],,8,,2V84[16:3],,
{16}1,,2bx,,3>8[8:1],,,,5bxv2[8:1],,,,1bx,,,,3bx<2b[16:4],,,,,
{4},
{32},,
{16}8x-5[8:1]*-3[8:1],,,,8,,,,
{16}2V41[16:3],,1,1x-5[16:2],2,,8<6[8:1],,,,8>2[8:1],,,,8-4[8:1]/4,,,,
{16}3V15[16:3]/8,,,,6<4[4:1]/3,,,,6,,,,,,
{16}1-6[8:1],,6-2[8:1],,1,,5<8[8:1],,,,5/3v1b[16:2],,,,1b-4[16:2],,,,5xq3[16:3],,6,,7h[4:1],,,,
{16},,3x-8[8:1],,6,,8V25b[16:4],,,,,,6,,7,,
{16}2x,,1x,,8/4,,,,3,,7<5[8:1],,2,,7-4[8:1],,1,,7V15[16:3],,
{16}8,,7x,,6<1[8:1],,,,4xv7[8:1],,,,8x,,,,6bx>7b[16:4],,,,,
{4},
{32},,3x,4,5,6,7,8,1,2,3,4,5,6,7,8,1,2,
{2}3/5xh[4:7],,,,
{8}4>1[4:2],,,,1qq4[4:5],,,,
{2}7,6,
{8}5,,,,4,,,,3,,,,2,,,,1,,,,8,,,,7,,,,6,,
{16}5-1[8:1],4,5,4,5qq6[4:2],,,,
{4}3,2,1,8pp7[2:1],6,5,4,3>6[2:1],4,3,2,1pp4[2:1],8,7,6,5qq8[2:1],3,2,
{8}1,1h[8:1],
{16}7-4[8:1],,,,7,,1,,2<8[8:1],,,,2,,6,,
{16}7-1[8:1],,6,5,7x,,4,,3<5[8:1],,2,1,3x,,8,,
{16}7bxh[8:3],,,,1,,,,
{32}2,3,4,5,6,7,8,1,
7/2,6,5,4,3,2,1,8,
{16}7bxV58-4b[16:5],8bx,7bx,8bx,7bx,,1-3[8:1],,,,1-7[8:1],,,,5x-2[8:1]/1,,4,,
{16}7V15[16:3]/5,,6,,3>4[4:1]/7,,2,,3,,,,,,
{16}8-3[8:1],,3-7[8:1],3x,8,,4>1[8:1],,,,4/6-2-8b[16:4],,,,8b<5[16:2],,,,4xv1[8:1],,3,,2h[4:1],,,,
{16}8,7,6<2[8:1],4,3,2,1V74b[16:4],,,,,,3,,2,,
{16}7xw3[8:1],,8x,,7,,,,5,,1>3[8:1],,6,,1-4[8:1],,7,,1-5[8:1],,
{16}8,,2b,,3>8[8:1],,6,,4bv2[8:1],,,,1b,,,,3b<2b[16:4],,,,,
{4},
{32},,6x,5,4,3,2,1,8,7,6/2x,3,4,5,6,7,8,1,
{16}2V41[16:3],,1x,1x-5[16:2],2,,8<6[8:1],,,,8>2[8:1],,3,,8-4[8:1]/4,,5,,
{16}3V15[16:3]/8,,2,,6<4[4:1]/3,,7,,6,,,,,,
{16}1-6[8:1],,6-2[8:1],6x,1,,5<8[8:1],,,,5/3v1b[16:2],,3,,1b-4[16:2],,,,5x-8[8:1],,6,,7h[4:1],,,,
{16}1,2,3x-8[8:1],4,6,7,8V25b[16:4],,,,,,6,,7,,
{16}2xw6[8:1],,1x,,2x,,,,4,,8<6[8:1],,3,3,8-5[8:1],,2,2,8-4[8:1],,
{16}1,,7x,,6<1[8:1],,3,,5xv7[8:1],,,,8x,,,,6b>8b[16:4],,,,,
{4},
{32},,3x,4,5,6,7,8,1,2,3/6x,5,4,3,2,1,8,7,
{16}2>5[16:3]/6x,,,6xV84[16:4],,,6,,,,1,,2-5[8:1],,5-1[8:1],,,,,,7qq5[16:2],,6,,1>4[8:1]/7,,2,,
{16}6<8[8:1],,5x,,6x,,3,3,1,,1,,2,,1p5[8:1]*<6[8:1],,3,,1,,,,
{16}3,,4w8[8:1],,,,,,,,6/2,,8,,1pp5[8:3],,,,,,7,,7h[4:1],,,,4-8[8:1],,8,,,,
{16},,1-5[8:1],,7x,6,5qq2[16:8]/1,,,,7,,1bxh[8:1],,
{16},,8,,8,,8
,,8,2,7,3,6,4,8<5[8:1],,,,3,,2,,1,,
{12}4,4,4,6,6,6,
{16}1b-5-2[16:4],8x,7x,,1,,6xV84[16:4],,,,6x,,4,,3>6[16:4],,,,7,,6,,
{16}5V71[16:3],,,,5,,4>5b[8:3],,4bxh[4:1],,,,,,,,4,,2,,8,,
{16}3/7,2/6,1/5b>3[8:1],,,,5,,,,
{16}7,6,5,4,8,7,6,5,
{1}1b-5<2v4[4:15],,,,
{32}E8,B7,B6,E6,
E
