&title=GOAT!
&artist=黒うさぎ × Ci flower × 重音テト × 可不
&first=-0.005
&des=G×O×A×T!
&lv_5=13
&inote_5=(140){4},,,,,{2}5h[4:1]/4-2[8:1],
{8}5h[4:1],3-1[8:1],,,{2}5h[4:1],
{8}5h[4:1],2,{4}2-4[8:1],
{2}6h[4:1],{8}6h[4:1],3-1-3[16:5],,,{2}6h[4:1],
{8}6h[4:1],1,{4}1>3[8:1],
{2}7h[4:1],{8}7h[4:1],3>1>3[8:3],,,{2}7h[4:1],
{8}7h[4:1],2,{4}2>6[4:1],
{2}8h[4:1],{8}8h[4:1],2v3[4:1],,,8-4[4:1],
,,,,1>4[8:1],{4}5-1[8:1],
5x-7[8:1],5/2,{8}8-6[8:1],8,{4}3,
{8}1,1>3[8:1],,4,{4}4<6[8:1],2-4[8:1],
5-7[8:1],5-1[8:1]/4-2[8:1],5/4,8-6[8:1],
1-5[8:1],6-8[8:1]/1-3[8:1],1/6,3-7[8:1]*-1[8:1],
3,1/8-4[8:1],{8}8,3,2>5[8:1],2,
8,7,6-8[8:1]*-2[8:1],4,{4}6,1w5[8:1],
1,4/6,{8}8h[8:1],7,1h[8:1],2,
{16}3,4/2,,6,{8}7/5,1/8,6/3,7,{4}1h[4:1]/8p4[8:1],
,2>4[8:1],6pp8[16:3],{8}2,3,
{4}4v3[16:3],{8}7,6,5,4,{4}5-8[8:1],
2-5[8:1],6-8[8:1]*-4[8:1],{8},,1,2,
{2}3-1[8:1]/6-4[8:1],{8}7-5[8:1]/2-5[8:1],8/1,{16},,,,6,
4,6,5,{4}7h[8:1],{16}3,5,3,4,{4}2h[8:1],
{16}5,4,{8}5,{16}1,8,2,7,3,6,4,5,4>5[2:1],7,2,5,
{2}3h[4:1],{4}B5/B4/E5,{8}1/8,1h[4:1]/8h[4:1],
,,{4}E7/E3/B6/B3/C,,3x-5[8:1]/6x-4[8:1],
3/6-2[8:1],6/2,{8}1/8-5b[8:1],7,{4}3V51[16:3],
{8}7-4b[8:1],6,{4}2V48[16:3],{8}5-1-7b[4:1]*-1-3b[4:1],5,,,,4/6,
{4}3/7p1[4:1],{8}1,2,3,4,
2/3,4,1/3,4,3/8,4,{16}7/3v8[8:1],6,5,4,
{4}3bx,{16}6/2,,,7,{8}7<3[4:1],8,{4}1-6[8:1],
{8}1V38[4:1],5,1,{16}7,6,{4}5h[8:1],{8}6/3,5/2,
{16}1/4<1[4:1],,,2,{8}2,3,4,5,{4}1h[8:1]/5h[8:1],
8b<5[8:1]/4b>1[8:1],8bv3[8:1]/4bv7[8:1],4b/8b,{24}1,8,7,6,5,4,
{4}3-7b[8:1],3b/1b,{8}8/1-5b[8:1],2,{4}6V48[16:3],
{8}2-6b[8:1],3,{4}7V51[16:3],{8}4w8b[8:1],4,,,,8/2,
{4}3/7p5[4:1],{8}4,3,2,1,
2/3,1,2/4,1,5/2,1,{16}2/6<1[8:1],3,4,5,
{4}6bx,{16}5/4,,,3,{8}3qq2[4:1],7,{4}7<4[8:1],
{8}7V51[4:1],3,7,{16}2,3,{4}4h[8:1],{8}8/2,1,
{4}7h[8:1]/1h[8:1],{16}5/6h[8:1],,,3,{8}4,4/5,{16}2/7,3/6,{8}5p4[8:3]/4q5[8:3],
,,,,,C,{4}B8/E1/B1,
8V64[4:1],4v6[16:3],{2}2-8[8:1]*-4[8:1],
{8}7h[8:1],B2/B3/E3,4/5,B7/E7/B6,2h[8:1],3,4-8[8:1],5,
{4}5-2[8:1]*-7[8:1],5-1[8:1],5V37[4:1],{8}5,1,
{4}1h[4:1],6-3[8:1],6-8[8:1]/2v5[8:1],6,
7p1[4:1],1p5[16:3],{2}3<5[8:1]*>1[8:1],
{4}8p3[4:1],{8}3,2,{4}1,7q5[16:3]/3q1[16:3],
7q1[2:1],,,4qq1[2:1]*V68[2:1],
{16},,,,,,,,,,,,1,8,1,8,
{4}1h[4:1],{8}4<7[8:1],4,{4}3,8h[4:1],
{8}3<6[8:1],3,7,8,1/2,3,4,5,
{16}4x/7-4[8:1],,,3x,,,{8}2x,{16}5x/1>4[8:1],,,6x,,,{8}7x,
1/8,7/2,{16}5-2[8:1]*-1[8:1],4,{8}6,,,{4}8h[8:1]/3h[8:1],
{16}5/6-1[8:1],,,5,{8}6,3,2-5[8:1],{16}7,7,{4}2,
6-3[8:1]/4-1[8:1],4/6,{8}7v1[8:1],2,{4}7/4,
8-5[8:1]/3-6[8:1],8/3,{16}8/4<8[4:1],7,6,5,{8}4,3xh[8:1],
,1/2,8/3,4/7,{4}5h[4:1]/6<5[32:7],{32}A6,A7,A8,A1,A2,A3,A4,A5,
{4}6x-2b[8:1],6,{8}8/1-5b[8:1],3,{4}7/1V37[16:3],
{8}8-4b[8:1],6,{4}8V26[16:3],{8}2V48b[16:3]*V41b[16:3],3,,,,3/7,
{4}2/8V64[4:1],{8}4,3,2,1,
7/8,2,6/8,3,5/8,4,{16}8/4-7[8:1],1,2,3,
{4}4bx-6p2[4:1],{16}8,,,7,{8}7V53[16:3],8,{4}1-6[8:1],
{8}1>4p8[4:1],5,1,{16}7,6,{4}5h[8:1],{8}3/6,7/4,
{16}5/8>5[4:1],,,6,6,,,8,{8}8,1/E6,2/E7,3/E8,
{4}5b-3[8:1]/4b-6[8:1],4b-8[8:1]/5b-1[8:1],5b/4b,{24}2,3,4,7,6,5,
{4}3-6[8:1]/4-1[8:1],3b/4b,{8}1/8-4b[8:1],6,{4}2/8V62[16:3],
{8}1-5b[8:1],3,{4}1V73[16:3],{8}6w2b[8:1],6,,,{4}5<8[8:1]*>2[8:1],
5,{8}1/6h[8:3],8,2,7,
8/4-7[8:1],8,1/4-8[8:1],1,2/4<7b[8:1]*>1b[8:1],2,{4}4,
{8}8<5[8:1],5,3-7[8:1],4,2>5[8:1],1,6-2[8:1],7,
8-5[8:1],1,8>5[4:1],2,8,{16}5,6,{8}7,{16}8,8,
{8}1-5[8:1],8-4[8:1],1,{16}8-6[8:1],3,{8}3-1[8:1],8,{16}3,5,{8}5-1[8:1],
,5,{16}2,3,4,5,8,7,6,5,{24}3,4,3,4,3,4,
{8}3>1[8:1]*<5[8:1],3,,,4/5,4pp1[8:5]/5-3[8:1],,5,
,,,,,8h[8:1]/1h[8:1],
E
