&title=НУМЛ
&artist=Zutt
&first=0.55
&des=tkmr
&lv_5=14+
&inote_5=(79)
{8}1V35[2:1]/8h[4:1],,,,7,,6,,
7s3[2:1]/4z8[2:1],,,,,,,,
2h[4:1]/1V75[4:1],,,,8V24[4:1],,,,
5v8[2:1]*-1[2:1],,,,,,,,
7/6h[4:1],8,1,,2/3h[4:1],1,8,7,
6V85[32:17],5,4V25[4:1],,,,,,
6/7h[4:1],5,4,,3/2h[4:1],4,5,6,
(158){4}
7bq4[4:5]/2bp5[4:5],,,,
(200){4},,,,
3/4,3/6,3/8V64[4:3],3,3,3,3,3,
6/5,6/3,6/1V35[4:3],6,6,6,6-2[8:1],6<5[4:7]*>7[4:7],
,,,,,,,,
{6}
6h[6:1],8h[6:1],2h[6:1],4h[6:1],3h[6:1],1h[6:1],
7h[6:1],5h[6:1],6h[6:1],8h[6:1],1h[6:1],3h[6:1],
{4}
6h[4:1],5,4h[4:1]/5,5,
7h[4:1]/5,5,3^5[8:1]/5,6b,
{8}
7h[8:1],6,7h[8:1],8,7h[8:1],1,7h[8:1],2,
7h[8:1],3,7h[8:1],4,7-5[8:1],5,5,,
{4}
4/3h[4:1],4,5h[4:1]/4,4,
2h[4:1]/4,4,6^4[8:1]/4,3b,
{8}
2h[8:1],3,2h[8:1],1,2h[8:1],8,2h[8:1],7,
1h[8:3],8,7,6h[8:3],,2,3,4,
5-8[8:1]/6,,4/5-2[8:1],,5/6,,6,,
6/5,4,3V16[2:1]/6,,
{6}
3/6,5,4,
{8}
3<8[2:1],,1,,1,,1,,
7h[8:1],8,7h[8:1],6,7-5[8:1],5,5,,
4-1[8:1]/3,,5/4-7[8:1],,4/3,,3,,
3/4,5,6V83[2:1]/3,,
{6}
6/3,4,5,
{8}
6>1[2:1],,8,,8,,8,,
2h[8:1],1,2h[8:1],
{16}
4,3,5,4,6,5,7,4,6,3,
{8}
5-7[8:1],,2-4[8:1],2,5-7[8:1],,2-4[8:1],,
5-8[8:1],,1-4[8:1],1,5-8[8:1],,3,,
4-2[8:1],,7-5[8:1],7,4-2[8:1],,7-5[8:1],,
4-1[8:1],,8-5[8:1],8,4-1[8:1],,6,,
7-3[8:1],,8-5[8:1],8,7-3[8:1],,8-5[8:1],,
6-1[8:1],,4-8[8:1],4,6-1[8:1],,3,,
2-6[8:1],,1-4[8:1],1,2-6[8:1],,1-4[8:1],,
3-8[8:1],,5-1[8:1],5,3-8[8:1],,6,,
1/5,1/5,2/6,2/6,3/7,3/7,4/8,4/8,
{16}
7,5,6,4,5,3,4,2,8bw4[8:1],,,,,,,,
2/6,,3,5,4,,2/6,,3,5,4,,6,5,7,4,
8,,3,4,2,5,1,,2/6,,7,1,8,,2/6,,
7,1,8,,3,5,4h[8:1],,5,3,6,2,7,1,8,,
7/3,,6,4,5,,7/3,,6,4,5,,3,4,2,5,
1,,6,5,7,4,8,,7/3,,2,8,1,,7/3,,
2,8,1,,6,4,5h[8:1],,4,6,3,7,2,8,1,,
2b/8b,,1,1,1,,3b/7b,,1,1,1,,8,5,6,4,
7,,1,4,3,5,2,,6b/4b,,5,5,5,,7b/3b,,
5,5,5,,8/2,3/7,4/6,,4,6,2,5,3,7,1,,
7b/1b,,8,8,8,,6b/2b,,8,8,8,,1,4,3,5,
2,,8,5,6,4,7,,3b/5b,,4,4,4,,2b/6b,,
4,4,4,,1/7,6/2,5/3,,5,3,7,4,6,2,8h[4:3],,
(316){4},,,,
(158)
4^2[4:1],2^8[4:1],8^6[4:1],6^4[4:1],
4-2[4:1],2-8[4:1],8-6[4:1],6-4[4:1],
4^1[4:1],1^6[4:1],6^3[4:1],3^8[4:1],
8V64[4:1],4V28[4:1],8-5[8:1],6b,
{16}
4/7,3/6,2/5,1/4,,,5/2,6/3,7/4,8/5,
{24}1,2,3,7,8,1,2,6/3,
,,,,
{16}
5/2,6/3,7/4,8/5,,8/5,7/4,3/6,
{24}
2/5,1,8,7,6,5,1,2,3,4,5,6,2/7,,,,,,
{16}
8b/1b,7/2,6/3,5/4h[16:3],,,2,2,3,7,7,6,3,3,4,6,6,5,
4/7,3/6,2/5,1/4,,,2/5,3/6,4/7,5/8,8,8,1,1,1,3/6,,,
5/2,6/3,7/4,8/5,,,4/7,3/6,2/5,1/4,1,1,8,8,8,2/7,3/6,,,,
4b/5b,3/6,2/7,1/8h[16:3],,,6,6,7,3,3,2,7,7,8,2,2,1,
3b/8b,,,1b>8[16:7]/6bqq1[16:7],,,,,,,,,,,,,
7-1[16:1],,,3-1[16:1]/7,,,6-1[16:1]/3,,,6/4-1[16:1],,,5s1[4:1]/4,,,,,,,,,,
(1600){1},
(200){4}
6/4>6[4:5],,,,5,,,,
3/5<3[4:5],,,,4,,
{16}
5,6,7,8,1,2,3,4,
{8}
6h[4:1]/5h[4:1],,,
{24}
4,5,4,5,,,
3,4,3,4,,,
{8}
2/5,3h[4:1]/4h[4:1],,,
{24}
5,4,5,4,,,
6,5,6,5,,,
{8}
4/7,6h[4:1]/3h[4:1],,,
{24}
2,4,2,4,,,7,5,7,5,,,
{8}
1/8,7/2,7-4[8:1]/2-5[8:1],,7/2,,
{32}
6/3,7/2,8h[16:3]/1h[16:3],,
{8},,
7/3,7^5[8:1]/3^1[8:1],,7^1[8:1]/3^5[8:1],,7/3,,
{16}
8,7/1,
{8}
2/6,2-4[8:1]/6-8[8:1],,2-8[8:1]/6-4[8:1],,2/6,,
{16}
1/7,2/6,
{8}3/5,5p1[8:1]/3^1[8:1],,5^7[8:1]/3q7[8:1],,5/3,,6/8,
1q5[8:1]/5q1[8:1],,1<6[8:1]/5>2[8:1],,1-4[8:1]/5-8[8:1],,1b/5b,,
{16}
3/7,,6,4,5,,2,4,3,,6,4,5,,3/4,,
2/6,,3,5,4,,7,5,6,,3,5,4,,5/6,,
3/7,,2,1,4,,8,1,6,,2,1,4,,3/5,,
2/6,,7,8,5,,1,8,3,,7,8,5,,6/4,,
3,8,1,8,1,8,1,8,2,7,8,7,8,7,8,7,
1,6,7,6,7,6,7,6,8,5,6,5,6,5,6,5,
7,6,8,6,1,5,2,6,3,7,4,8,5,1,5,1,
8/4,7/3,6/2,5/1,4/8,,3/6,,
{24}
2/7,3,4,5,6,7,1b/8b,,,,,,
{12}
7,5,6,2,4,3,7,8,6,2,1,3,
7,5,5,6,4,4,5,3,3,4,2,2,
6,7,5,3,2,4,8,6,7,1,3,2,
6,8,8,7,1,1,8,2,2,1,3,3,
2b,4,8,2,6,8,4b,2,6,4,8,6,
1b,3,7,1,5,7,3b,1,5,3,7,5,
6b,8,5,1,6,2,7,3,8,4,1,5,
{24}
2,1,8,7,6,5,4/7,8,1,2,3,4,
5/6,7,8,1,2,3,
8/4,5/1,6/2,7/3,4/8,1/5,
{4}
2bp8[4:17]/6bp4[4:17],,,,,,,,,,,,
(192)
,,,,,,
(185)
,,
(190)
2h[4:1],3h[4:1],4h[2:1],,1h[4:1],2h[4:3],
{6}
3,5,7,
(95){8}
1qq5[2:1],8,7h[2:1],,,,,,
(190){4}
7h[4:1],6h[4:1],5h[2:1],,8h[4:1],7h[4:3],
{6}
6,4,2,
(95){8}
8pp4[2:1],1,2h[2:1],,,,,,
E
