&title=ギミー!レボリューション
&artist=内田真礼「俺、ツインテールになります。」
&first=0
&des=テイルスター
&lv_5=13+
&inote_5=(180.001)
{1},{32},,,,,,,,,,,,,,,,,,,,,,,
(180)
{24}1b/8b,2/7,3/6,{8}4^1[32:11]/5^8[32:11],,,,,,4/2h[4:1],
{8},8^3[8:1],7,6h[4:1],,4,4/6,1h[4:1]/8,
{8},7,8,1h[4:1]/3,,3,2,1b/8b,
{8},4b/5b,,2b/7b-3[8:3],,,1,,
{8}1,,1^4[8:1],4,{24}1,8,7,6,,,3/5,,,,,,
{8}7/5,,1/8h[4:1],,2,2-6[8:1],,6,
{8},7/5,7/5,7q3[8:1]/5qq3[8:1],,,,2h[8:1]/8h[8:1],
{8},3h[8:1]/4h[8:1],,5/7,8-6[8:1],1-5[8:1],8,1b,
{8},6h[384:1],4h[384:1],8h[384:1],2h[384:1],,4-8[8:1]/3,,
{8}2,,2h[2:1],1,8,7,6,5^8[8:1],
{8},8,1,2-5[8:1],,5,6,7,
{8}8-4[8:1],4-6[32:3],8,3,,2^8[8:1]*pp4[8:1],,2,
{8},6,6/5,7h[2:1],6,5,4,3,
{8}2^7[8:1],,2/7,6,5,4,3,2^4[8:1],
{8},2/5^7[8:1],,3h[4:1],,8,8-4[8:1],,
{8}4,3,2,1^4[8:1],,4,5,6b-1[8:1],
{8},4b-8[8:1]/6,,4b/5,,6,5-1[8:1],7,
{8}7,,7h[2:1],8,1,2,3,4-1[8:1],
{8},1,8,7^4[8:1],,4,3,2,
{8}1-3[8:1],3-8[8:1],1,6,,7q3[8:1]*v4[8:1],,7,
{8},2,2/5,3h[2:1],4,5,6,7,
{8}8^5[8:1],,8/5,4,3,2,1,8-2[8:1],
{8},8/4-6[8:1],,3h[4:1],,7,7-4[8:1],,
{8}4,3,2,1-5[8:1],,5,6,7-3[8:1],
{8},3,2,1w5[8:1],,,,,
{8}5qq3[16:3],6pp8[16:3],,,,,,3/4,
{8},3-1[16:3]/4-6[16:3],,,,,,1b-3[8:1]/8b-6[8:1],
{8},8b-4[8:1]/1b-5[8:1],,8b/1b,,6h[4:1],,4h[4:1],
{8},7,7,8-3[8:1]/1,,,2,2,
{8}1-6[8:1],,5^2[8:1],,5,7b,,8^3[8:1],
{8},4,4-7[8:1],,3,2b,,1/6,
{8}1>4[4:1]/6,,4^7[4:1],,7^2[4:1],,2,,
{8}4,4,5/3,5/3,2/6,2/6,1/7,1/7,
{16}2,8,2,7,2,6,2,5,{32}2,3,4,5,6,7,8,1,2,3,4,5,{8}6/8b-4[8:1],
{8},2b,2b,,1-5[8:1]/8-6[8:1],,1-3[8:1]/8-4[8:1],,
{8}8b/1b,,2/1,3/4,5/6-2[8:1],7/8,,3-8[8:1],
{16},,3,7,7,,1v4[8:1],,,,1/5,,7,,1^6[8:1],,
{8},3,2,1^4[8:1],,7,8,1b-6[8:1],
{8},5b-2[8:1]/1,,8b-4[8:1]/5,,2,{16}8,1,2,3,
{8}4b/6q2[8:1],,2,3-8[8:1],4,5-1[8:1],4,3-7[8:1],
{8},3/6,6,8/5^8[8:1],,2^5[8:1],,2/6h[4:1],
{8},4,2,8^3[8:1],,6,7,8^5[8:1],
{8},2,1b-5[8:1],,1bw5[8:1],,1b,,
{8}1b/8b,,7/8,6/5,4/3-7[8:1],2/1,,6-1[8:1],
{16},,6,2,2,,8v5[8:1],,,,8/4,,2,,8^3[8:1],,
{8},6,7,8^5[8:1],,2,1,8-3[8:1],
{8},5-1[8:1],6,7,,2/8,3/7,4/6,
{8}5^2[8:1]*^8[8:1],,5w1[8:1],,5b,,1/7,1/7h[4:1],
{8},3^6[8:1],8,3,,7/5,6/4,3>5[8:3]/5,
{16},,3h[4:1],,,,,,1,2,3,4,5/1,2,3,4,
{8}5/1bpp1[4:1]*qq1[4:1],,,,,2/8,2/8,,
{8}5h[8:11]/4,,4,6,4,6,4,6,
{8}2,6,4,6,{24}3,4,5,6,,,{8}2/8,1b>5[32:5],
{8},5,7,1<5[32:5],,5,3,1-5[8:1],
{8},7,7,,8bz4[8:1]*-5[8:1]/1,,8b,,
{8}2/6,,8/1h[4:1],,7,7-3[8:1],,3,
{8},2/4,2/4,2-6[8:1]/4-7[8:1],,,,{24}8,1,2,
{24}3h[4:1],,,5,,,6,,,7,6,5,4h[4:1],,,3,,,2,,,1,2,3,
{8}4h[4:1],6,7,8-5[8:1]/4-1[8:1],,8/4,,{32}2b,3,4,5,
{32}6,7,8,1,2,3,4,5,6,7,8,1,{8}2,8-4[8:1],4,8,3,
{24}2/6,,,4,5,3,{8}4,2b-6[8:1]/6b-2[8:1],,,,1V35[4:1],
{8},6,6h[4:1],,4-2[8:1],5-1[8:1],4,5b,
{8},7-4[8:1]/8-4[8:1],6,7b/8b,,2-5[8:1]/1-5[8:1],3,2b/1b,
{8},7-4[8:1]/8-3[8:1],1/6,7b/8b,,2-5[8:1]/1-6[8:1],3/8,2b/1b,
{8},7-5[8:1]/8-4[8:1],1/6,7b/8b,,1w5[8:1],2/8,1b,
&inote_6=
