&title=東の空から始まる世界
&artist=yuiko
&first=-0.817
&des=因幡 めぐる
&lv_5=12.9
&des_5=因幡 めぐる
&inote_5=
(170){4},{16},,,,,,,,,,,,8,
7,{8}6,,1,,2,,3,
,8/1,,7,,6,,5,
,5/4,,6,,7,,8,
,1,{4}2,5/4,3/6h[4:1],
{8},8-6[8:1],,1,,2,,3,
,1-3[8:1],,8,,7,,6,
{32},,,,1,2,{16}3,,,{8}6,,6/3,,8b/1b,
,2,,7/Cf,,1,8,1>4[8:1],
,1,,8,,8/1,,7<4[8:1],
,7,,8,,8/1,,1-4[8:1],
,1,,8,,2,,4,
,6/4,,1/8-4[8:1],2V46[4:1],8,{4}2b,
{8},4>1[8:1],,4,,5,,5/4,
,6<1[8:1],,6,,5,,5/4,
,4b-1b[8:1],,4,5h[4:1],,,8bh[8:9]/2bh[8:9],
,,,,,,,,,8bx/2bx,
,7-3[8:1],1,7,,1-4[8:1],
8h[4:1],,,3,,8-5[8:1],,4-1[8:1],
,,,7,5,6,2,2<6[4:1],
,6>2[4:1],,8-4[8:1],,8-6[8:1],,8,
,1>4[8:1],,1/8<5[8:1],,8/1w5[8:1],,1,
,7>3[4:1],,3<7[4:1],,1-5[8:1],,1-3[8:1],
,1-7[8:1],,1w5[8:1],,,,7h[4:1]/2bqq5[8:3],
,,,7h[4:1],,2,,8/1,
,6/3,7-3[8:1],1,{4}7bx,8/1,
2-6[8:1],7-3[8:1],{8}1qq4[8:3],,,6<2[4:1],
,6,,3-8[8:1],,3,,7qq4[8:3],
,,,1,,2,,3-7[8:1],
,3/6,,6-2[8:1],,6/3,,8-5[8:1],
,8-3[8:1],,8,,8,7,6,
5b-8[8:1],,,1,,4-8[8:1],,4,
,6b/2b,3,4,5/1,8,7,6/3h[4:1],
,8b,8-4[8:1],1,{4}8,{8}B2/B3,B7/B6/Ch[4:1],
,8,7,6-1[8:1],,6/3,,3-8[8:1],
,3/6,,7,E5,E1,,7h[4:1]/2h[4:1],
,,{4}8-5[8:1]/1-4[8:1],8/1,6-1[8:1],
3-8[8:1],6p3[8:3],{2}6,
{8}2h[8:3],,,5<3[2:1],,4,,3>5[2:1],
,4,,5,,4-8[8:1],4,4/8>6[8:3],
,,,7,7,8<6[4:1],,6>4[4:1],
,4>2[4:1],,2<7[4:1],,7<3[4:1],,3>7[4:1],
,7qq4[8:5],,,,8>3[8:1],,,,8x/B4,
,7x/B3,,6x/B2,,5x/B1,
,Cf/E7/E3,,,,5,7,6b,
{4}1pp4[8:3],{8}1,8,,6,,8qq8[4:1],
,8,,1,{4}2,7-3[8:1],
{8}7,2-6[8:1],,2,,8w4[8:1],,8,
,,{4}4qq4[4:1],{8}4pp4[4:1],7,7,7,
{4}8b-4[8:1],{8}8,1,,,{4}6<2[4:1],
2>6[4:1],8,1-4[8:1],{8}7-3[8:1],7,
,,{4}5/1,5p4[8:3],Cf,
{8},2,{4}2pp1[8:3],{8},,,8,
{4}7<3[4:1],,,6pp5[8:3],
{8}4qq5[8:3],,,,,,,8<5[8:1],
,1,,2>5[8:1],,1,,8w4[8:1],
8,,,6-1[8:1],,6,4,8,
{4}1>5[4:1],{8}5s1[4:1],5,,,,8-5[8:1],
,8,{4}1-4[8:1],{8}1,8w4b[8:1],,Cf,
,,{4}6v8[8:1]/2v4[8:1],6/2,7-3[8:1]/3-7[8:1],
{8},,,1<5[8:1],5>1[8:1],1,,6b-3[8:1],
,,,,{4}8h[4:1],2h[4:1],
6h[4:1],{8}4,7-4[8:1],,7,{4}2pp5[8:3],
{8},,,,,8V61[4:1],,4V25[4:1],
,,,,8-4[8:1],1pp5[8:3],{4}8,
,,8-5[8:1],4-1[8:1],
,7-2[8:1]/3-6[8:1],{8},,8bz4b[4:1]/1bs5b[4:1],7/2,
,,,,{4}8-4[8:1],2-6[8:1],
{2}7<3[4:1],{4}1-5[8:1],{8}1,8h[8:3],
{2}1-3[8:1],{4}8q1[4:1],1>8[8:3],
8,1,1-5[8:1],{8}1,8h[8:3],
,,{4}3b,{8},7/2,,8,
{4}7,{8}1,2,,8,1,7-5[8:1]/2-4[8:1],
,7b/2b,{16},,,,,,,,,,,,E8,
E1,{8}E2,{16},,,,,,8,1,{4}2>2[0.3529##11.2941],
{8},A1,,,,A8,,,,A7,
,,,A6,,,,
A5,,,,A4,,,,A3,
,,,B2,,,,B1,
,,,B8,,,,B7,
,,,B6,,,,B5,
,,,B4,,,,3,
,,,4,,,,5pp8[2:1],
,,,,,,,1V36[2:1]*V74[2:1],
,,,,,,,8-5[4:1],
,,,1-5[4:1],,,,7-5[4:1],
,,,2-5[4:1],,,,8-5[8:1],
,2-5[8:1],,7-5[8:1],,3-5[8:1],
,3b,{32},,,,,,,,5x,4x,3x,2x,1x,8x,7x,6x,{4}5bxw1b[8:1],
Cf,7h[4:1]/3h[4:1],{8},8b/2b,,8qq8[4:1],
,8>5[4:1],,,,1-6[8:1],,2/1-4[8:1],
,1/8h[8:3],,,{4}3-6[8:1],{8}3,8-5[8:1],
8,,,4qq4[4:1],,4pp4[4:1],1,1,
8,7>3v5[8:3],,,,,,4-1[8:1],
,8-5[8:1],,,,7-4[8:1],,8,
1-4[8:1],,,,,8-5[8:1],,5bp4[8:3],
,Cf,{4}4>5[8:3],{8},,,8,
6-2[8:1],,,1,,3-7[8:1],,8,
,6-2[8:1],,1,,2<6[4:1],,6>2[4:1],
,2-6[8:1],,,,8-4[8:1],,8,
1b-3b[8:1],,,8h[4:1],,1b-3[8:1],8-4[8:1],1qq5[8:3],
,,{4}5<4[4:1],{8},,,8x-6[8:1]/1x-6[8:1],
2,,,8/1,{4}8x-3[8:1]/1x-3[8:1],8xs4s8[1:1]/1x>8[1:1],
{1}Cf,
{8},1-4[8:1],,1/8h[4:1],,1-6[8:1],,1/2h[4:1],
,1-4[8:1],,1/8h[4:1],,1-6[8:1],,1/2h[4:1],
,7b,,8,{4}1,3b/6b,
{8},8b-5[8:1],,8/1h[4:1],,8-3[8:1],,8/7h[4:1],
,8-5[8:1],,8/1h[4:1],,8-4b[8:1],,8b,
,6b/5b,,7b/8b,,1b/2b,,3b/4bw8[8:7],
E
