&title=Manifold Hypothesis
&artist=cybermiso; tigerlily
&first=0
&des_1=Aster For HoshineSumi
&des_2=Aster For HoshineSumi
&des_3=Aster For HoshineSumi
&des_4=Aster For HoshineSumi
&des_5=Aster For HoshineSumi
&lv_5=14+
&des_6=Aster For HoshineSumi
&des_7=Aster For HoshineSumi
&des=Aster For HoshineSumi
&inote_5=(87)
{2},
{1}C,A5,6/3>6[2:3],
{4}Ch[4:1],,
{8},E4,E3,,
{16}7h[8:1],,1-4[16:1],7,,7,1,,3h[8:1],,1-6[16:1],3,,3,1,,
{16}2h[8:1],,8-5[16:1],2,,2,8,,6h[8:1],,8-3[16:1],6,,6,8,,
{8}7h[16:1]/4,6h[16:1]/3,5h[16:1]/2,4h[16:1]/1,
{8}2h[16:1]/5h[16:1],3h[16:1]/6h[16:1],4h[16:1]/7h[16:1],5h[16:1]/8h[16:1],
{16}8,1/7,2/6,3/5,1,8/2,7/3,6/4,
{16}7-5[16:1],1-3[16:1],8-4[16:1],2,7,1,8,2,
{16}8h[8:1],,1b,,
{32}2-6[16:1],3,4/5,6,7-3[16:1],8,
{16}1/2h[8:1],,,7,,,,4/5,3,1h[8:1]/2,,8b,,7p2[8:1],5,4,2p5[8:1],7,6,5,4,3p1[8:1],2,1-5[16:1],8,7h[8:1]/3b,,,,
{32}2,1,8-4[16:1],7,6-2[16:1],5,4/8b,,,,
{16}8,6,,,,3/1-4[16:1],2/8,1-3[16:1]/7h[8:6],,1-6[16:1],,
{64}1-5[16:1],,,,,,,,
{16}1v3[16:1],,1>4[16:1],,1w5[16:1],,1,,1b-4-8-5[16:1],,
{96}A3/A7,D3/D7,A2/A6,D2/D6,A1/A5,D1/D5,,,,,,,
{32},,,,7,8,1-5[16:1],2,3-7[16:1],4,5/1b,,,,
{16}A1,,,,,8,1/7,2/6h[8:1],
{128}D2,A1,D1,A8,D8,A7,D7,,D6,A5,D5,A4,D4,A3,,,
{16},1b,2,3,4/Ch[8:3],,,,,,,,,
{16}1>4[16:1],8,7,6,1/5<8[16:1],,3,2,
{64}5/1x,2x,3x,4x,
{4},
{16},1,2/8,3/7h[8:6],,
{16}1,,
{64}1x,B1,C,B5,,,,,
{16}1,,
{64}1x,B8,B7,E7,,,,,
{16}1s5[16:1],,
{64}1x,B2,B3,E4,,,,,
{64}8x/1x,B8/B1,C,B4/B5,,,,,
{16}2h[4:1]/6,,
{128}D3,A3,D4,A4,D5,A5,D6,A6,D7,A7,D8,A8,D1,A1,,,
{64},3,4,5,
{16}6-2[16:1],1,3/7,,6b,,,,
{16},1>4[16:1],2/8,3/7h[8:1],,1<6[16:1],8,1,2,1>4[16:1],2,1,8,1w5[16:1],8,1,2,1b-5-8[16:1]*-5-2[16:1],,Ch[64:7],,,
{32},,7,8,1-3-8[16:1],2,3-7[32:1],4,5/1b,,,,,,
{16},,,,8<5[16:1],7/1,6/2h[8:1],,8>3[16:1],1,8,7,8<5[16:1],7,8,1,8w4[16:1],1,8,7,8,,Ch[64:7],,,
{32}8,8,1/7h[8:1],,,,3,,,,5/6,,,5/6,,,4,4,3h[8:1]/5,,,,7,6,5,4,6,5,4,3,5,4,3,2,1h[8:1]/5,,,,3,,,,1/2,,,1/2,,,1,2,3h[8:1]/8,,,,5b-1[16:1],,,,
{16}4-2[16:1]/7,6,5-7[16:1]/2,3,4-8[16:1]/8,6,5-1[16:1]/1,3,4-2[16:1]/8,6,5-7[16:1]/2,3,4/7,6,5/1,3,5/6,5/6,4/7,4/7,3/8,3/8,1/2,1/2,
{32}1,2,1,2,8,3,8,3,7,4,7,4,6,5,6,5,
{48}7b<2[2:3]/4,8/3,1/2,
{2},,,
{16},,,,,,,
{1}2b>7[2:3]/7,
{4}Ch[4:1],,
{8},E4,E3,,
{8}Ch[8:31]f,E2,E3,E4,B1,B2,B3,B4,A1,A2,A3,A4,D1,D2,D3,D4,D5f,D6,D7,D8,A5f,A6,A7,A8,B5f,B6,B7f,B8,E5f,E6,E7f,E8,1-5[4:1],,,,1<5[4:1],,,,1>5[4:1],,,,1q5[8:1]*p5[8:1],,,,
{16}5/4,6,5/4,3,5/4,7,5/4,2,5/3,7,6/4,2,5/3,8,6/4,1,7/8,8/1,1/2,2/3,3/4,4/5,5/6,7/6,
{32}7,8,1,2,8,1,2,3,
{64}1,2,3,4,5,6,7,8,1s5[16:1],2,3,4,5,6,7,8,
{32}1b>1[8:1],,,,
{64}1b/8b,Cf,,,,,,,
{64}E2,E3,E4,E5,E6,E7,E8,,
{32},,,,Ch[16:2],,,,,,,,8h[32:3],,,7h[32:3],,,6h[16:1],,5h[32:2],,4h[32:2],,3h[8:1],,,,,,
1h[32:2],,2h[32:2],,3,,2,3,2,3,4,3,4,3,8,1,2,3,
{64}8b-4[16:1],7,6,5,4,3,2,1,
{8}8h[2:1],,,
{16}1b-5[16:1],2h[16:2],,,8-4[16:1],7h[8:1],,,1b-5[16:1],3h[16:2],,,8<1[2:1],6h[8:1],,,,,,,8,7,6,5,4,3,2b,,
{16}2v5[16:1],6v1[16:1],
{64}2x,3x,4x,5x,6x,7x,8x,1x,
{16}2,6b,
{64}2x,3x,4x,5x,6x,7x,8x,1x,
{16}2v5[16:1],6bv1[16:1],
{64}2x,3x,4x,5x,6x,7x,8x,1x,
{8},Cf,
{16}7v4[16:1],3v8[16:1],
{64}7x,6x,5x,4x,3x,2x,1x,8x,
{16}7,3b,
{64}7x,6x,5x,4x,3x,2x,1x,8x,
{16}7v4[16:1],3b,
{64}7x,6x,5x,4x,3x,2x,1x,8x,
{16},Cf/D2/E2/D4/E4/D6/E6/D8/E8/E1/E3/E5/E7,
{32},,,,Ch[16:2],,,,,,8h[32:3],,,7h[32:3],,,6h[32:3],,,5h[32:3],,,4h[32:3],,3h[32:3],,2h[32:3],,1h[32:3],,8h[32:1],,5/7,,6,,2/4,,3,,8/6,,7,,3/1,,2,,
{32}8/4,7,6,5,4/8,3,2,1,
{64}8/4h[16:1],7,6,5,,3,2,1,
{32}8b,,,,,,
{32}6/2,3,4,5,6,,8/4,1,2,3,4,,6/2,7,8,1,2,,4/8,5,6,7,8,,2/6,3,4,5,6,,,,
{32}2,3,4,5,6b,,8,1,2,3,4b,,5h[2:1],,,,6,,7,,8,,1,,2,,3,,Cf,,,,
{32}3/7b,6,5,4,3,,1b/5,8,7,6,5,,3b/7,2,1,8,7,,5b/1,4,3,2,1,,7b/3,6,5,4,3,,
{16}1b/5h[4:1],,,,,1,8,7,Ch[8:5]f,,,,,,,,,,,,,
{16}1>7[8:1],2,3h[8:1],,,,,,8<2[8:1],7,6h[8:1],,,,,,
{16}1-5[16:1]/8,2/7-3[16:1],3/6,,1,7,,2/1,3/8-4[16:1],4/7-3[16:1],5/6,,8,7,,1/2,8/3-8[16:1],7/4-7[16:1],6b/5b,,3b,4b,,1/8,2/7-4[16:1],3-7[16:1]/6,4b/5b,,7b,3b,,
{16}1/8,2/7,3/6,4b/5b,
{32}3x,2,1,8,4<4[4:1],5<5[4:1],6<6[4:1],7>7[4:1],4,3,2,1,4x,5x,6x,7x,4bz8[4:1],
E
