&title=Xb10r
&artist=隣の庭は青い(庭師+Aoi)
&first=2.33
&des=H*$#T? as Beginner
&lv_5=14+
&inote_1=
&inote_5=(200){8}
1x/8x,2,3,7,8,4,3,5,
6,7,2,8,3,7,4,6,
3/5,4,6,7,1,2,7,6,
(200){16}
2h[16:3],,,1,2,,8,,1-5[8:1],7,1,7,1,,,,
(200){8}
5x/8,8,4x/7,7,3x/6,6,2x/5,5,
1/4x,1,2/5x,2,3/6x,3,4/7x,4,
(200){16}
3x,8,3,8,3,8,3,8,2x,7,2,7,2,7,2,7,
(200){32}
1x,2,3,4,5,6,7,8,1,2,3,4,5,6,7,8,1bx-5[8:1],,,,,,,,,,,,,,,,
(200){16}
4x,5,3,6,2h[8:1],,8x,1,7,2,6h[8:1],,2x,4,3,4,2h[8:1],,7x,5,6,5,7h[8:1],,
8,7,1,6,2,5,3,4,
3x,4,3,4,2h[8:1],,6x,5,6,5,7h[8:1],,3x,4,2,5,1h[8:1],,6x,5,7,4,8h[8:1],,
2,1,3,8,4,7,5,6,
5b,4,3,2/1,8,7,6/4,3,2,1/8,7,6,5/3,2,1,8/7,6,5,4/1,2,3,4/6,7,8,1-5[8:1]/5,,,,1b/7bh[4:5],,,,
(200){8}
,,4,4,3,3,2,2,
(200){16}
1,,1,5,1-5[8:1],5,1,5w1[8:1],1,,,,Cf,,,,
2bx/7bx,,E2/B2,,E7,B6,B5,E5,E3,,,E8/B7,,,B2/E2,,,,
E6,,E5,,E4,,,,E7,,C,,E3,,
B6/E6,,,E2/B2,,,C,,B3/E4,,,E8/B7,,,C,,
(200){4}
,E8/B8/B1/E2,E3/B3/E7/B6,E4/B4/B5/E6,
(200){16}
6h[16:3],,,7-3[16:1],,,2h[8:3]/7V51[4:1],,,,,,,,,,
3h[16:3],,,2-6[16:1],,,7h[8:3]/2V48[4:1],,,,,,,,,,
1,2,3,4,7,6,5,4,2,3,4,5,6,7,8,1,2b,2h[8:1],,5,5h[8:1],,3b,3h[8:1],,7,7h[8:1],,Cf
,,,,2/4,,1/8,,1/8,2,3,4,5b/7b,,,1b/8b,,,7b/2b,,,,2/4,,3/5,,4/6,,5,7,4,6,3,5,2,4,
1-5[8:1],,,7,1-3[8:1],,7,,6/1-5[8:1],,,6,1,,6,,
(200){4}
5^8[8:1]/1^4[8:1],5x-2[8:1]/1x-6[8:1],5x-1[8:1]/1x-5[8:1],1bx/5bx,
(200){16}
7h[8:1],,8,6h[8:1],,1,5h[8:1],,3h[4:1],,2,1,8,7,6,5,
4h[8:1],,3,5h[8:1],,4,6h[8:1],,5,,4,7,3,6,2,5,
1x,2,3,4,5,6,7,8,1x/7x,6,5,4,3,2,1,8,
(200){6}
7hx[12:1],5hx[12:1]/6hx[12:1],4hx[12:1]/5hx[12:1],
3hb[12:1]/4hb[12:1],2hb[12:1]/5hb[12:1],1hb[12:1]/6hb[12:1],
(200){4}
7bh[4:6]/Ch[4:6],,,,,,,
(200){16}
1-5[8:1],1,1,1,1b,,,,
4b/6b,3,2,1,5,4,3,2,6,5,4,3,7,6,5,4,8,7,6,5,1,8,7,6,5/1-5[8:1],2,3,4,5/1b,,,,
1b,2,3,4,8,1,2,3,4/8,1/5,2/6,,,,
7v4[8:1]/3v8[8:1],,2/6,,3/7,,,,2/7,,2-5[8:1]b/7,,,,
2b/8b-4[8:1]b,,,,3b^6[8:1]b/8b,,,,7bp3[8:1]b/3b,,,,7b/8b,,1b,,
2bv5[8:1]b/8bv5[8:1]b,,,,2b/8b,,,,2bv5[8:1]b/6b-1[8:1]b,,3b/7b,,2b/6b,,,,
4b/8b,,4/8,,3b/7b,,3/7,,2b/6b,,2/6,,1b,7,1,7,
(200){32}
2b,,1,,2,E3,B3,B4,7b,,8,,7,E7,B6,B5,
(200){16}
1b,8,2,7,3,6,4,5,
(200){1}
3x-7[4:2]/5x-1[4:2],8-5[4:2]/6qq5[4:2],8-4[4:2],8<4[4:2]*>4[4:2],
(200){16}
A5,E5,E4,A3,A6,B6,B2,A2,A7,E8,E1,A1,Ch[4:1],,,,
A2,E2,E1,A8,A3,B3,B7,A7,A4,E5,E6,A6,Ch[4:1],,,,
E7,B6,B5,E5,E3,B3,B4,E5,B8,B7,B6,B5,B1,B2,B3,B4,
E7,E6,E5,E4,E3,E2,E1,E8,E7/2x,,,3x/5x,,,4x/6x,,
4x/6x,,,,6/E5/B4,,6,,6/4,,,6,B3/E4,,6,,
4/7,,,7,E5/B4,,7,,7x/4x,,,4x/6x,,,3x/5x,,
3x/5x,,,3,E5/B4,,3,,3/5,,,3,B6/E6,,3,,
3hx[8:1]/5hx[8:1],,,4hx[8:1]/6hx[8:1],,,2hx[8:1]/B5/B6,,,7hx[8:1]/B3/B4,,,1x/8qq5x[4:3],,,,
(200){8}
1x/8x,1,2,2,3,3,4qq1[4:3],4,4x/5x,5,6,6,7,7,8,8,1x/7x,1/7,2x/6x,2/6,3x/5x,
(200){16}
2,6,1,7,2,8,
(200){24}
3,4,5,6,7,8,
(200){32}
1,2,3,4,5,6,7,8,
(200){48}
1,2,3,4,5,6,7,8,1,2,3,4,5,,,,,,,,,,,,
(200){1}
8b-5[28.56#0.15]b/4bz8[28.56#0.15],
(200){24}
6,7,8,1,2,3,6,7,8,1,2,3,6,7,8,1,2,3,4bx/8bx,,,,,,
(200){16}
2bx/7bx,,2,1h[8:1],,3,8h[8:1],,4>8[4:1],,,,4/8,7,6,5,
4,,,2,1-5[8:1],,8,,1/7h[4:1],,,,8,1,2,3,
4h[8:1],,5,3h[8:1],,4,2h[8:1],,1h[8:1],,2,8h[8:1],,3,7h[8:1],,
8h[8:1],,7,1h[8:1],,6,2,,2-4[8:1]/5-1[8:1],,,,2b/5b,,,,
3h[8:1],,1,2h[8:1],,8,1,,7h[4:1],,,,8,1,2,3,4-8[8:1],
,,2,2-6[8:1]/4,,2,,1/2,,,,3,7,2,6,
1bV35[4:1],,,5,5-1[8:1],,6,,7,,,,2/8V64[4:1],,,,4b-8[8:1],,,3bh[8:1],,,2b,,2b,,,,
1-5[8:1],8,2,7,
1b-3[8:1],,,6,1-5[8:1],,7,,1-3[8:1]/7,,,,8/1-5[8:1],,8,7,
6/1^3[8:1],,,6,1-5[8:1],,7,,7^4[8:1]/1^4[8:1],,,,1/7-3[8:1],,,,
7b^5[8:1],,,4,7-3[8:1],,3,,3/7-5[8:1],,,2,7,,2,,
7bh[8:1]/8bh[8:1],,,1bh[8:1]/6bh[8:1],,,1b/8b,,2b/7b,,,,
1,8,1,8,1x,2,3,4x/8x,1,2,3,4,5x/8x,7,6,5x/1x,8,7,6,5,4/8,1,2,3,4/8,7,6,5,
4/8,1/5,2/6,3/7,4/8,1/5,2h[4:1]/6h[8:9],,
,,,,2,,2,,2,,2,,2,,2,,2,,2,6,2,6,2,6,2-7[8:1],6-3[16:1],2,6,2x,,,,
2/6,,2/6,,2/6h[8:1],3,4,,4/6,,4h[8:1]/6,7,8,,4/8,,4/8,3/7,2/6,,2/6,,2/6,3/5,
4w8[8:1],,,,4b,,,,
3b/6b,,,,1,7,2,8,3^8[16:3],,1^6[16:3],,7^4[16:3],,5>2[16:3],,,,
,,8,7,6,5,2,3,4,5,1,8,7,6,5/3,,2,6,2,,1/7,,6V82[4:1],,8V24[4:1],,2V46[4:1],,
4V68[4:1],,,,
(200){24}
A1,A2,A3,
(200){16}
A4,,,,6,5,6,5,7,4,8,3,1x/2x,,3,8,3,,7/4,,3,5,3,5,2,4,2,4,
2^4[8:1],,4^6[8:1],,6^8[8:1],,8^2[8:1],,,,,,
(200){32}
3x,4,5,6,7,8,1,2,
(200){24}
3/7,6,5,4,3,2,1,8,7,6/1,2,3,4,5,6,7,8,1,
(200){32}
2/6,3/7,4/8,1pp8[8:3]/5pp4[8:3],
(200){4}
,Cf,,
(200){8}
,2b/6b,,
(200){12}
2b,1,3,8,5,6,1b,5,3,7,4,4,6,2h,4,8h,6,4h,8,2h,4,1h[4:1],,,
4b,3,5,1,6,2,5b,3,7,4,8,8,3,5h,1,7h,5,1h,3,7h,5,8h[4:1],,,
(200){16}
2x,1,3,8,4,7,3,5,2x,6,1,7,2,8,4,6,3x,5,1,7,3,4,2,8,1x,7,2h[8:1],,6,5,6,5,
4x/7x,,3,8,2,,1x/7x,,6,2,6,,3x/5x,,4,6,3,7,2,6,1,5,8,4,
(200){24}
3/7,4/8,1/5,2-7[16:1]/6-3[16:1],3/7,4/8,
(200){8}
5/1,
(200){32}
2b<3[4:3]/6b,Cf,,,
(200){8}
,,,,,,,,,E4,B5,E3,B6,B2,B7,E1,E,
