&title=Guilty Night, Guilty Kiss!
&artist=Guilty Kiss
&first=0.64
&wholebpm=135
&demo_seek=49.5
&demo_len=29
&lv_5=13
&des_5=Ragna
&des=Ragna
&inote_5=(135){16}1b,,,,
27,,,1,,1,,1,,6,5,,3,4,2,5,
1,,1>6[4:1],,,1h[16:5],,,,,,,27,,,,
1,8,1,8,{32}1,2,3,4,8,7,6,5,{16},3,4,,6,5,,1,
,,45,,27,,,,1V38[4:1]/8,,2,,1/8-4[8:1],,7,,
6b^3[8:1],,,,6/2h[4:1],,,,8h[8:1],,1,8,,,2>6[16:3]/6,,
,,7p2[8:1]/2,,,,8h[4:1],,,,1,,27,,,,
5-8[8:1]/4,,,,5/6h[4:1],,,,1h[8:1],,8,1,,,2-6[8:1]/6,,
,,2/7h[4:1],,,,5,,4V25[4:1]/5,,3,,4/5-1[8:1],,6,,
7^2[8:1],,,,7/3h[4:1],,,,5h[8:1],,4,5,,,3>7[16:3]/7,,
,,6q3[8:1]/3,,,,5h[4:1],,,,4,,36,,,,
8-5[8:1]/1,,,,7h[4:1]/8,,,,4h[8:1],,5,4,,,3-7[16:3]/7,,
,,6-2[8:1]/3,,,,62,,,,36,,4v1[8:1]/5-8[8:1],,,,
4b/5b,,,,18,,7,,6,,3,,4,,5h[4:1]/7h[4:1],,
,,,,28,,3,4,,6,5^2[8:1],,,,,,
7,,18,,2,,6,5,,3,4,,26,,,,
7h[8:1]/1h[8:1],,,5h[8:1]/7h[8:1],,,3h[8:1]/5h[8:1],,,1h[8:1]/3h[8:1],,,1p4[8:1]/8-5[8:1],,27,,
1b/8b,,,,45,,3,,2,,7,,8,,3h[4:1]/1h[4:1],,
,,,,64,,2,4,,7,5,,83,,,,
71,,2,4,3,,7,5,,2,4,,16,,,,
7h[8:1]/5h[8:1],,,4h[8:1]/5h[8:1],,,24,,1pp3[8:1]/5pp7[8:1],,,,1b/5b,,,,
3V17[4:1],,,,6<4[10:3],,,,4,,5,,6,,,,
78,,16,,2h[16:3]/5,,,1,2,,83,,74,,65,,
6V82[4:1],,,,3>5[10:3],,,,5,,4,,3,,,,
1/2-6[8:1],,3,,1>8[10:3]/2,,8,,14,,,,,,,,
8V64[4:1],,,,3<1[10:3],,,,1,,2,,3,,,,
75,,6,,42,,3,,4-8[8:1]/5-1[8:1],,,,45,,,,
1>5[4:1],,,,5<1[4:1],,,,1,,,,5,,6,,
7b/4b,,,,,,,,,,,,,,,,
1bv4[8:1]/8b-5[8:1],,,,1b/8b,,,,4b/5b,,36,,27,,1h[4:1]/8h[4:1],,
,,,,6v8[8:1]/2,,4,,2v4[8:1]/6v4[8:1],,,,26,,,,
4bv1[8:1]/5b-8[8:1],,,,5b/4b,,,,1b/8b,,27,,36,,4^1[8:1]/5,,
,,45,,6,,7qq6[16:3]/8pp1[16:3],,,,78,,,,,,
1bv4[8:1]/5b-8[8:1],,,,1b/5b,,,,4b/8b,,6,,15,,3,,
75,,6,,2-6[8:1]/4-8[8:1],,,,24,,,,75,,64,,
5V31[4:1]/3,,,,1V75[4:1],,,,5,,4,,3V51[4:1],,,,
63,,7,,8z4[16:5]*s4[16:5],,,,8,,,,,,,,
4bq1[8:1]/5b-8[8:1],,,,4b/5b,,,,1b/8b,,72,,36,,5h[4:1]/4h[4:1],,
,,,,26,,18,,3h[8:1]/7h[8:1],,,37,,,25,,
1bp4[8:1]/8b-5[8:1],,,,1b/8b,,,,4b/5b,,63,,27,,1^6[8:1]/8,,
,,12,,3,,5qq4[16:3]/4,,,,56,,7,,,,
8b-5[8:1]/4bq1[8:1],,,,8b/4b,,,,1b/5b,,3,,84,,6,,
14,,2,,8^5[8:1]/5^2[8:1],,,,85,,,,14,,25,,
3<8[4:1]/6,,,,8>5[4:1],,,,5,,6,,7V51[4:1],,,,
74,,3,,2-6[8:1],,,,2v5[8:1]/8v5[8:1],,,,2b/8b,,,,
4b^1[8:1]/5b^8[8:1],,,,4bv2[8:1]/5b-1[8:1],,,,4b/5b,,,,83,,7,,
16,,2,,74,,6,,25,,3,,65,,7,,
8b-6[8:1]/4b-2[8:1],,,,8b-4[8:1]/4b-8[8:1],,,,8b/4b,,,,15,,2,,
83,,7,,61,,2,,48,,7,,53,,2,,
1b^4[8:1]/8b^5[8:1],,,,1bv3[8:1]/8b-4[8:1],,,,1b/8b,,,,25,,1,,
74,,8,,35,,1,,65,,8,,45,,1,,
7b-5[8:1]/3b-1[8:1],,,,7b-3[8:1]/3b-7[8:1],,,,7b/3b,,,,84,,1,,
26,,7,,84,,3,,26,,5,1,6,2,7,3,
{1}8b-4[2:3],,E
