&title=Technicolour
&artist=Maozon
&first=0
&des=Suteralice
&lv_5=13+
&inote_5=(175){1},
4/8qq4[8:8],{8},,3,,,2,,,
5/1pp5[8:8],{8},,,,,,,,,6,,,7,,,
4/8<3[8:8],{8},,,,,,,,,2,,,1,,,8>5[1:1]/5,,,,,,,,8-4[8:3],,,,,,,,
4-1[8:4],,8,,7,,6,,
5-8[8:4],,1,,2,,3,,
4-1[8:4],,8,,7,,6,,5,,4,,3,,2,,
{16}1/8,,,,2/7,,3/6,,2,,3,4,2,4,3,,
6,5,7,5,6,,3,4,2,4,3,,6/5,,4/7,,8/3,,2,,8,1,7,1,8,,2,1,3,1,2,,8,1,7,1,8,,2,1,3,1,2,,1/8,,2/7,,
3h[16:1]/6h[16:1],,,2h[16:1]/4h[16:1],,,7h[16:1]/5h[16:1],,,,1,8,2b<3[8:4]/7h[8:6],,,,,,,,,,,,,,1/8,,,,,,
6h[16:1]/3h[16:1],,,7h[16:1]/5h[16:1],,,2h[16:1]/4h[16:1],,,,8,1,7b>6[8:4]/2h[8:6],,,,,,,,,,,,,,
8,1,7,2,6,3,5-8[8:1],,,,4/5,,,,6-1[8:1],,5,,6,,4,,
{8}2-5[8:1],4,2,7-4[8:1],5,7,2,,1/5,1/5,2/6,2/6,3/7,3/7,4/8,4/8,{16}5,1,4,8,3,7,2,6,{32}1,8,7,6,5,4,3,2,1/5b,,,,3/7,,,,
{16}
1-4[8:1]/5,,,,1/8,,,,2-5[8:1],,6,,2,,7,,8-6[8:1],,5,,8-4[8:1],,3,,8,,2,,1/6,,2/7,,
3/8-5[8:1],,,,1/8,,,,7-4[8:1],,3,,7,,2,,1-3[8:1],,4,,1-5[8:1],,6,,1,,7,,8/3,,7/2,,
1/6v3[8:1],,3,,2,,1v4[8:1],,8,,7,,6v3[8:1],,3,,2,,1v4[8:1],,8,,7,,6,,5,,4,,3,,
8v5[8:1]/2,,1,,2,,3v6[8:1],,6,,7,,8v5[8:1],,1,,2,,2,,1,,1,,8/7,,8/7,,1/6,,6/1,,
2-5[8:1]/5-1[8:1],,2/5,,2b/5b,,,,
7-4[8:1],,5,,7,,3,,2-4[8:1],,1,,2-6[8:1],,8,,2,,5,,3/7,,,,
7-4[8:1]/4-8[8:1],,3,,4/7,,,,
2-5[8:1],,4,,2,,6,,7-5[8:1],,8,,7-3[8:1],,1,,7,,4,,3/1,,2/8,,
1/7,,,,3/4,,2/5,,
1/6,,3,4,3,,8/3,,6,5,6,,1/6,,3,4,3,,8/3,,6,5,6,,
6/5,,4/7,,3/8,,1/2,,
1/2,,6,5,6,,7/8,,3,4,3,,1/2,,6,5,6,,7/8,,3,4,2,5,
{8}1<1[1:2],,,,,,,,,,,,
1,,,,1<1[1:2],,,,,,,,,,,,
1,,,,1<1[1:2],,,,,,,,,,,,
1,,,,1V75[8:6],,,,,,5V31[8:6],,,,,,8,,
{16}8,7,6,5,4,,4,,2/5,,3h[8:2],,,,4,,2/5,,,,
5,,5,,7/4,,6h[8:2],,,,5,,7/4,,,,
3,,3,,2/5,,4h[8:2],,,,5,,6/3,,,,
6,,6,,7/4,,5h[8:2],,,,4,,3/6,,,,
4,,4,,2/5,,3,4,3,4,3,,2/5,,3,,
5,,5,,7/4,,6,5,6,5,6,,7/4,,3,,
2,,2,,1/4,,2,3,2,3,2,,1/5,,6,,
7/8V24[8:4]*V64[8:4],,,,,,,,,,,,,,,,
{1}7<7[8:12]/6h[8:13],,
2>2[8:12]/3h[8:13],,
6<6[8:12]/7h[8:13],,
{8}2h[8:14],,,,,,,,3<8[8:6],,,,,,,,
1-4[8:4],,5,,6,,7,,
8-5[8:4],,4,,3,,2,,
1-4[8:4],,5,,6,,7,,8,,1,,2,,3,,
{16}4/5,,,,3/6,,2/7,,3,,2,1,3,1,2,,
3,4,2,4,3,,6,5,7,5,6,,3/4,,5/2,,1/6,,7,,1,8,2,8,3,,7,8,6,8,5,,1,8,2,8,3,,7,8,6,8,5,,8/1,,7/2,,
{8}3b-5[8:1]/6b,5-2[8:1],3,6,7-3[8:1],3-1[8:1],7,4,5,8,4/5,7,3/4,6,2/3,5,
3-1[8:1],1-4[8:1],3,8,7-3[8:1],3-5[8:1],7,2,1,8,4/5,1,5/6,2,6/7,3,
1v6[8:1]/8,6,7,8q4[8:1],3,2,1p5[8:1],6,7,8v3[8:1],3,2,1,8,1/6,5,
3v6[8:1]/4,6,5h[128:1],4p8[8:1],1,2h[128:1],3q7[8:1],6,5h[128:1],4v1[8:1],1,2h[128:1],3,4,3h[128:1]/6h[128:1],7h[128:1],
4-2[8:1]/8-4[8:1],4/8,4b/8b,,
1-5[8:1],5-2[8:1],1,6,7,3/4,2,6/5,8,2/4,1,5/7,
8-6[8:1]/4-8[8:1],4/8,4b/8b,,
5-1[8:1],1-6[8:1],5,2,3,7/8,6,2/1,4,6/8,5,1/3,4h[8:2],,5,
{16}3/6,,7,5,7,6,7,,3,5,3,4,3,,6,4,6,5,6,,2,4,2,3,2,,8,2,8,2,8,2,8,2,1,2,1,3,1,4,1,5,1,4,8,3,7,2,6,1,
{24}5,4,3,2,1,8,
{16}7b-2[8:1]/3b-6[8:1],,,,7b/3b,,,,,,,,
,,1b-5[8:1]/8b-4[8:1],,2b/7b,,1b/8b,,,,,,
,,3,4,3,,2,,1w5[8:1],,8,,1b,,,,,,7,,,,,,2,,,,1/2,,3/5,,8/7,,6/4,,1/2,,,4/5,,,8,1,
7b^4[8:1]/2b,,4q8[8:1],,7,,3-6[8:1],,2,,3,,7v4[8:1],,8,,7,,3^1[8:1],,1q5[8:1],,3,,
8-3[8:1],,7-4[8:1],,8,,7,,
3^8[8:1],,8q4[8:1],,3,,7-2[8:1],,6,,7,,3v8[8:1],,4,,3,,7^5[8:1],,5q1[8:1],,7,,
2-7[8:1],,3-6[8:1],,2,,3,,8q4[8:1]*p4[8:1],,8,,8b,,,,3/6,,2,,1/5,,8h[8:1],,
4-6[8:1],,1-5[8:1],,4,,1,,8,,7,,6h[8:2]/5,,,,5-1[8:1],,1-3[8:1],,5,,8,,7qq5[8:1],,5^8[8:1],,7,,1,,
2,,3,,4/5,,3/6,,8/7,,,5/4,,,1/2,,
{16}3/6,,7,5,7,1,7,,3,5,3,1,3,,6,4,6,8,6,,2,4,2,8,2h[8:1],,8,2,8,2,8,2,8,2,7,3,7,2,7,1,7,8,7,6,7,5,7,4,7,3,3,1,1,5,5,7,7,
{16}2,5,4,8-4[8:1],2,6,5,{1}8b>8[8:28],1q6[8:3],2v5[8:3],3qq4[8:4],,,,,E
